вход на сайт

Имя пользователя :
Пароль :

Восстановление пароля Регистрация
Реальные Парни / Stand Up Guys (Фишер Стивенс, драма, комедия, криминал, 2012) [DVDRip-AVC, Дубляж]
Рейтинг:
(голосов: 1)



[img]{THEME}/images/logopost.png[/img]



•Реальные Парни / Stand Up Guys •
«Жгут как в последний раз! Таких уже не делают»
♥ Год выпуска: 2012
♥ Страна: США
♥ Производство: Lionsgate, Sidney Kimmel Entertainment, Lakeshore Entertainment
♥ Жанр: драма, комедия, криминал

♥ Режиссёр: Фишер Стивенс
♥ В ролях: Аль Пачино, Кристофер Уокен, Алан Аркин, Джулианна Маргулис, Марк Марголис, Люси Панч, Эддисон Тимлин, Ванесса Ферлито, Кэтрин Уинник, Билли Барр

♥ Перевод: Дубляж
♥ Субтитры: Отсутствуют
♥ Описание: История строится вокруг двух уже немолодых преступников, один из которых получил задание убить близкого друга. Столь непростая ситуация требует времени на обдумывание, и киллеры решают вместе с приятелем изрядно побуянить (включая посещение борделя, угон машин и бегство от полиции), прежде чем будет принято окончательное решение.



♥ Автор рипа: MysTeRy

♥ Качество: DVDRip-AVC
♥ Продолжительность: 01:31:05 час.

♥ Формат: MKV
♥ Видео кодек: x264
♥ Аудио кодек: AC3
♥ Видео: 720x424 @ 1024x424 (2.40:1), 25 fps, XviD MPEG-4 ~1 843 kbps avg, 0.241 bit/pixel
♥ Аудио: 48 kHz, AC3 Dolby Digital, 3/2 (L,C,R,l,r) + LFE ch, ~448 kbps
♥ Дата премьеры (мир): 11 октября 2012
♥ Дата премьеры (РФ): 31 января 2013, «Top Film Distribution»
MediaInfo: ▼TextОбщее
Уникальный идентификатор : 238893232365418797799751579082691817154 (0xB3B929B88F2FE5CB985BE2D2C7B1AEC2)
Полное имя : H:Realnye.parni.2012.D.x264.DVDRip
Формат : Matroska
Версия формата : Version 4 / Version 2
Размер файла : 1,46 Гбайт
Продолжительность : 1 ч. 31 м.
Общий поток : 2292 Кбит/сек
Название фильма : Realnye.parni.2012.D.x264.DVDRip
Дата кодирования : UTC 2013-03-06 15:24:14
Программа кодирования : mkvmerge v6.1.0 (Old Devil) built on Mar 2 2013 14:32:37
Библиотека кодирования : libebml v1.3.0 + libmatroska v1.4.0

Видео
Идентификатор : 1
Формат : AVC
Формат/Информация : Advanced Video Codec
Профиль формата : [email protected]
Параметр CABAC формата : Да
Параметр ReFrames формата : 11 кадров
Идентификатор кодека : V_MPEG4/ISO/AVC
Продолжительность : 1 ч. 31 м.
Битрейт : 1843 Кбит/сек
Ширина : 720 пикселей
Высота : 424 пикселя
Соотношение сторон : 2,40:1
Частота кадров : 25,000 кадров/сек
Цветовое пространство : YUV
Субдискретизация насыщенности : 4:2:0
Битовая глубина : 8 бит
Тип развёртки : Прогрессивная
Бит/(Пиксели*Кадры) : 0.241
Размер потока : 1,14 Гбайт (78%)
Заголовок : ENCODER........: MysTeRy
Библиотека кодирования : x264 core 130 r2273 b3065e6
Настройки программы : cabac=1 / ref=11 / deblock=1:-3:-2 / analyse=0x3:0x133 / me=umh / subme=10 / psy=1 / psy_rd=1.00:0.10 / mixed_ref=1 / me_range=32 / chroma_me=1 / trellis=2 / 8x8dct=1 / cqm=0 / deadzone=21,11 / fast_pskip=0 / chroma_qp_offset=-3 / threads=12 / lookahead_threads=2 / sliced_threads=0 / nr=0 / decimate=0 / interlaced=0 / bluray_compat=0 / constrained_intra=0 / bframes=7 / b_pyramid=2 / b_adapt=2 / b_bias=0 / direct=3 / weightb=1 / open_gop=0 / weightp=2 / keyint=250 / keyint_min=25 / scenecut=40 / intra_refresh=0 / rc_lookahead=60 / rc=2pass / mbtree=0 / bitrate=1843 / ratetol=1.0 / qcomp=0.70 / qpmin=0 / qpmax=69 / qpstep=4 / cplxblur=20.0 / qblur=0.5 / vbv_maxrate=50000 / vbv_bufsize=61400 / nal_hrd=none / ip_ratio=1.40 / pb_ratio=1.30 / aq=2:0.80
Язык : English
Default : Да
Forced : Нет
Основные цвета : BT.709-5, BT.1361, IEC 61966-2-4, SMPTE RP177
Характеристики трансфера : BT.709-5, BT.1361
Коэффициенты матрицы : BT.709-5, BT.1361, IEC 61966-2-4 709, SMPTE RP177

Аудио
Идентификатор : 2
Формат : AC-3
Формат/Информация : Audio Coding 3
Расширение режима : CM (complete main)
Идентификатор кодека : A_AC3
Продолжительность : 1 ч. 31 м.
Вид битрейта : Постоянный
Битрейт : 448 Кбит/сек
Каналы : 6 каналов
Расположение каналов : Front: L C R, Side: L R, LFE
Частота : 48,0 КГц
Битовая глубина : 16 бит
Метод сжатия : С потерями
Размер потока : 292 Мбайт (20%)
Заголовок : Dub
Язык : Russian
Default : Да
Forced : Нет

Меню
00:00:00.000 : en:Chapter 00
00:10:30.333 : en:Chapter 01
00
ce25d686d8a686b384c32f3f28d322bddab8bdaeРеальные Парни / Stand Up Guys (Фишер Стивенс, драма, комедия, криминал, 2012) [DVDRip-AVC, Дубляж] Реальные Парни / Stand Up Guys (Фишер Стивенс, драма, комедия, криминал, 2012) [DVDRip-AVC, Дубляж] " />

Аплоадер: Админ, дата: 7-03-2013, 01:07, торрент скачан: 359 раз

Понравилась раздача? Посмотрите эти:
  • Реальные парни / Stand Up Guys (Фишер Стивенс, Драма, комедия, криминал, 20 ...
  • Гадкий я 2 / Despicable Me 2 (Пьер Соффин, Крис Рено, мультфильм, фантастик ...
  • Реальные парни / Stand Up Guys (Фишер Стивенс, драма, комедия, криминал, 20 ...
  • Идеальный голос / Pitch Perfect (Джейсон Мур, Мелодрама, комедия, музыка, 2 ...
  • Реальные парни / Stand Up Guys (Фишер Стивенс, драма, комедия, криминал, 20 ...
  • Возвращение героя / The Last Stand (Ким Чжи-ун, Боевик, триллер, криминал, ...
  • Ангелы Чарли / Charlies Angels (МакДжи, Боевик, триллер, комедия, криминал, ...
  • Реальные парни / Stand Up Guys (Фишер Стивенс, Драма, комедия, криминал, 20 ...
  • Джек Ричер / Jack Reacher (Кристофер МакКуорри, Боевик,триллер, криминал, д ...
  • Реальные Парни / Stand Up Guys (Фишер Стивенс, драма, комедия, криминал, 20 ...
  • Реальные Парни / Stand Up Guys (Фишер Стивенс, драма, комедия, криминал, 20 ...
  • Реальные парни / Stand Up Guys (Фишер Стивенс, Драма, комедия, криминал, 20 ...
  • Реальные парни / Stand Up Guys (Фишер Стивенс, драма, комедия, криминал, 20 ...
  • Реальные парни / Stand Up Guys (Фишер Стивенс, Драма, комедия, криминал, 20 ...
  • Реальные парни / Stand Up Guys (Фишер Стивенс, Драма, комедия, криминал, 20 ...
  • Реальные парни / Stand Up Guys (Фишер Стивенс, драма, комедия, криминал, 20 ...
  • Реальные Парни / Stand Up Guys (Фишер Стивенс, Драма, комедия, криминал, 20 ...
  • Реальные Парни / Stand Up Guys (Фишер Стивенс, Драма, комедия, криминал, 20 ...
  • Патруль / End of Watch (Дэвид Эйр, Триллер, драма, криминал, 2012) [HDRip-A ...
  • [Трейлер] Реальные парни / Stand Up Guys (Фишер Стивенс, драма, комедия, кр ...
  • Облачный атлас / Cloud Atlas (Лана Вачовски, Том Тыквер, Энди Вачовски, фан ...
  • День учителя (Сергей Мокрицкий, драма, 2012) [DVDRip-AVC, Не требуется]
  • Двигай время! / Los ilusionautas (Эдуардо Шульдт, Мультфильм, фэнтези, прик ...
  • Лето. Одноклассники. Любовь / LOL (Лиза Азуэлос, Драма, мелодрама, комедия, ...
  • Лето. Одноклассники. Любовь / LOL (Лиза Азуэлос, Драма, мелодрама, комедия, ...
  • Информация
    Посетители, находящиеся в группе Гости, не могут оставлять комментарии к данной публикации.