вход на сайт

Имя пользователя :
Пароль :

Восстановление пароля Регистрация
Невозможное / Lo Imposible (Хуан Антонио Байона, драма, 2012) [HDRip, Профессиональный (двухголосый, закадровый)]
Рейтинг:
(голосов: 1)



[img]{THEME}/images/logopost.png[/img]



•Невозможное / Lo Imposible •
«Nothing is more powerful than the human spirit.»
♥ Год выпуска: 2012
♥ Страна: Испания
♥ Производство: Apaches Entertainment, Telecinco Cinema, Mediaset Espaсa
♥ Жанр: драма

♥ Режиссёр: Хуан Антонио Байона
♥ В ролях: Наоми Уоттс, Юэн МакГрегор, Том Холлэнд, Сэмюэл Джослин, Оакли Пендергаст, Марта Этура, Шенке Мёринг, Джеральдин Чаплин, Плой Хиндачоте, Жомжаои Сэ-Лим

♥ Перевод: Профессиональный (двухголосый, закадровый) | Омикрон
♥ Субтитры: Отсутствуют
♥ Описание: Во все времена человек был практически беззащитен перед стихиями природы, будь то ураган, тайфун, паводок, снежная лавина или цунами. И даже в наше время высокого развития технологий и создания мощных машин ситуация не изменилась. Действие этого фильма происходит в 2004 году. На город обрушивается цунами огромной силы, разрушая все, что можно разрушить. Людям остается только спасать себя и своих близких любыми путями, прилагая невероятные усилия. Здесь волей-неволей приходится раскрывать самые непредвиденные возможности своего организма и мышления. Вот именно так и становится невозможное возможным.



♥ Качество: HDRip
♥ Продолжительность: 01:53:31 час.

♥ Формат: AVI
♥ Видео кодек: XviD
♥ Аудио кодек: MP3
♥ Видео: 640x272 (2.35:1), 24.000 fps, XviD build 50 ~777 kbps avg, 0.186 bit/pixel
♥ Аудио: 48 kHz, MPEG Layer 3, 2 ch, ~128.00 kbps avg
♥ Дата премьеры (мир): 9 сентября 2012
♥ Дата премьеры (РФ): 14 февраля 2013, «Централ Партнершип»
MediaInfo: ▼
TextGeneral
Complete name : D:The.Impossible.2012_HDRip.avi
Format : AVI
Format/Info : Audio Video Interleave
File size : 743 MiB
Duration : 1h 53mn
Overall bit rate : 915 Kbps
Writing application : VirtualDubMod 1.5.10.2 (build 2540/release)
Writing library : VirtualDubMod build 2540/release
Video #0
ID : 0
Format : MPEG-4 Visual
Format profile : Advanced [email protected]
Format settings, BVOP : 1
Format settings, QPel : No
Format settings, GMC : No warppoints
Format settings, Matrix : Custom
Codec ID : XVID
Codec ID/Hint : XviD
Duration : 1h 53mn
Bit rate : 777 Kbps
Width : 640 pixels
Height : 272 pixels
Display aspect ratio : 2.35:1
Frame rate : 24.000 fps
Color space : YUV
Chroma subsampling : 4:2:0
Bit depth : 8 bits
Scan type : Progressive
Compression mode : Lossy
Bits/(Pixel*Frame) : 0.186
Stream size : 631 MiB (85%)
Writing library : XviD 1.2.1 (UTC 2008-12-04)
Audio #1
ID : 1
Format : MPEG Audio
Format version : Version 1
Format profile : Layer 3
Codec ID : 55
Codec ID/Hint : MP3
Duration : 1h 53mn
Bit rate mode : Constant
Bit rate : 128 Kbps
Channel(s) : 2 channels
Sampling rate : 48.0 KHz
Compression mode : Lossy
Stream size : 104 MiB (14%)
Alignment : Aligned on interleaves
Interleave, duration : 42 ms (1.00 video frame)
Interleave, preload duration : 504 ms
Writing library : LAME3.97
Encoding settings : -m s -V 4 -q 2 -lowpass 17 -b 128

Релиз Группы "Virtus"

Стол зака
d5a6d789a35b70ce6cc84c8eba43727d428bab72Невозможное / Lo Imposible (Хуан Антонио Байона, драма, 2012) [HDRip, Профессиональный (двухголосый, закадровый)] Невозможное / Lo Imposible (Хуан Антонио Байона, драма, 2012) [HDRip, Профессиональный (двухголосый, закадровый)] " />

Аплоадер: Админ, дата: 6-03-2013, 23:02, торрент скачан: 359 раз

Понравилась раздача? Посмотрите эти:
  • Невозможное / Lo imposible (Хуан Антонио Байона, драма, 2012) [BDRip-AVC, П ...
  • Невозможное / Lo imposible (Хуан Антонио Байона, Драма, 2012) [Blu-ray [RUS ...
  • Невозможное / Lo imposible (Хуан Антонио Байона, Драма, 2012) [BDRip-AVC, П ...
  • Невозможное / Lo imposible (Хуан Антонио Байона, драма, 2012) [HDRip, Про ...
  • Невозможное / Lo imposible (Хуан Антонио Байона, драма, 2012) [HDRip, Профе ...
  • Невозможное / Lo imposible (Хуан Антонио Байона, Драма, 2012) [HDRip-AVC, Д ...
  • Невозможное / Lo imposible (Хуан Антонио Байона, драма, 2012) [HDRip, Профе ...
  • Невозможное / Lo imposible (Хуан Антонио Байона, триллер, драма, 2012) [HDR ...
  • Невозможное / Lo imposible (Хуан Антонио Байона, драма, 2012) [BDRip-AVC, П ...
  • Невозможное / Lo imposible (Хуан Антонио Байона, Драма, 2012) [HDRip-AVC, П ...
  • Невозможное / Lo imposible (Хуан Антонио Байона, драма, 2012) [BDRip 720p, ...
  • Невозможное / Lo imposible (Хуан Антонио Байона, Драма, 2012) [BDRip, Профе ...
  • Невозможное / Lo imposible (Хуан Антонио Байона, триллер, драма, 2012) [480 ...
  • Невозможное / Lo imposible (Хуан Антонио Байона, триллер, драма, 2012) [HDR ...
  • Невозможное / Lo imposible (Хуан Антонио Байона, триллер, драма, 2012) [HDR ...
  • Невозможное / Lo imposible (Хуан Антонио Байона, триллер, драма, 2012) [BDR ...
  • Невозможное / Lo imposible (Хуан Антонио Байона, триллер, драма, 2012) [BDR ...
  • Невозможное / Lo imposible (Хуан Антонио Байона, триллер, драма, 2012) [HDR ...
  • Невозможное / Lo imposible (Хуан Антонио Байона, триллер, драма, 2012) [BDR ...
  • Невозможное / Lo imposible (Хуан Антонио Байона, Триллер, драма, 2012) [HDR ...
  • Информация
    Посетители, находящиеся в группе Гости, не могут оставлять комментарии к данной публикации.