вход на сайт

Имя пользователя :
Пароль :

Восстановление пароля Регистрация
Невозможное / Lo imposible (Хуан Антонио Байона, триллер, драма, 2012) [BDRip, Профессиональный (многоголосый закадровый)]
Рейтинг:
(голосов: 1)



[img]{THEME}/images/logopost.png[/img]



• Невозможное / Lo imposible •
«Nothing is more powerful than the human spirit.»

Год выпуска: 2012
Страна: Испания
Производство: Apaches Entertainment, Telecinco Cinema, Mediaset Espaсa
Жанр: Триллер, драма

Режиссёр: Хуан Антонио Байона
В ролях: Наоми Уоттс, Юэн МакГрегор, Том Холлэнд, Сэмюэл Джослин, Оакли Пендергаст, Марта Этура, Шенке Мёринг, Джеральдин Чаплин, Плой Хиндачоте, Жомжаои Сэ-Лим

Перевод: Профессиональный (многоголосый закадровый) | Омикрон
Субтитры: Нет

Описание: Во все времена человек был практически беззащитен перед стихиями природы, будь то ураган, тайфун, паводок, снежная лавина или цунами. И даже в наше время высокого развития технологий и создания мощных машин ситуация не изменилась. Действие этого фильма происходит в 2004 году. На город обрушивается цунами огромной силы, разрушая все, что можно разрушить. Людям остается только спасать себя и своих близких любыми путями, прилагая невероятные усилия. Здесь волей-неволей приходится раскрывать самые непредвиденные возможности своего организма и мышления. Вот именно так и становится невозможное возможным.Дата премьеры (мир): 9 сентября 2012
Дата премьеры (РФ): 14 февраля 2013, «Централ Партнершип»

Качество: BDRip |Сэмпл
Продолжительность: 01:48:57


Формат: AVI
Видео кодек: XviD
Аудио кодек: AC3
Видео: 720x304 (2.35:1), 24.000 fps, XviD, ~1449 kbps avg, 0.276 bit/pixel
Аудио: 48 kHz, AC3 Dolby Digital, 3/2 (L,C,R,l,r) + LFE ch, ~384.00 kbps avg


MediaInfo ▼TextGeneral
Format : AVI
Format/Info : Audio Video Interleave
File size : 1.46 GiB
Duration : 1h 53mn
Overall bit rate : 1 842 Kbps
Writing application : VirtualDubMod 1.5.10.3 | www.virtualdub-fr.org || (build 2550/release)
Writing library : VirtualDubMod build 2550/release
Video #0
ID : 0
Format : MPEG-4 Visual
Format profile : Advanced [email protected]
Format settings, BVOP : Yes
Format settings, QPel : No
Format settings, GMC : No warppoints
Format settings, Matrix : Custom
Codec ID : XVID
Codec ID/Hint : XviD
Duration : 1h 53mn
Bit rate : 1 449 Kbps
Width : 720 pixels
Height : 304 pixels
Display aspect ratio : 2.35:1
Frame rate : 24.000 fps
Color space : YUV
Chroma subsampling : 4:2:0
Bit depth : 8 bits
Scan type : Progressive
Compression mode : Lossy
Bits/(Pixel*Frame) : 0.276
Stream size : 1.15 GiB (79%)
Writing library : XviD 64
Audio #1
ID : 1
Format : AC-3
Format/Info : Audio Coding 3
Mode extension : CM (complete main)
Codec ID : 2000
Duration : 1h 53mn
Bit rate mode : Constant
Bit rate : 384 Kbps
Channel(s) : 6 channels
Channel positions : Front: L C R, Side: L R, LFE
Sampling rate : 48.0 KHz
Bit depth : 16 bits
Compression mode : Lossy
Stream size : 312 MiB (21%)
Alignment : Split accross interleaves
Interleave, duration : 42 ms (1.00 video frame)
Interleave, preload duration : 500 ms


Релиз Группы "Virtus"

Стол заказов / Вступление в РГ / Благодарности, критика и другое
d40c3aabdea7f0a28058c5cdb2e52d87767d428bНевозможное / Lo imposible (Хуан Антонио Байона, триллер, драма, 2012) [BDRip, Профессиональный (многоголосый закадровый)] Невозможное / Lo imposible (Хуан Антонио Байона, триллер, драма, 2012) [BDRip, Профессиональный (многоголосый закадровый)] " />

Аплоадер: Админ, дата: 6-03-2013, 17:15, торрент скачан: 359 раз

Понравилась раздача? Посмотрите эти:
  • Невозможное / Lo imposible (Хуан Антонио Байона, драма, 2012) [BDRip-AVC, П ...
  • Невозможное / Lo imposible (Хуан Антонио Байона, Драма, 2012) [Blu-ray [RUS ...
  • Невозможное / Lo imposible (Хуан Антонио Байона, Драма, 2012) [BDRip-AVC, П ...
  • Невозможное / Lo imposible (Хуан Антонио Байона, драма, 2012) [HDRip, Про ...
  • Невозможное / Lo imposible (Хуан Антонио Байона, драма, 2012) [HDRip, Профе ...
  • Невозможное / Lo imposible (Хуан Антонио Байона, Драма, 2012) [HDRip-AVC, Д ...
  • Невозможное / Lo imposible (Хуан Антонио Байона, драма, 2012) [HDRip, Профе ...
  • Невозможное / Lo imposible (Хуан Антонио Байона, драма, 2012) [BDRip-AVC, П ...
  • Невозможное / Lo imposible (Хуан Антонио Байона, Драма, 2012) [HDRip-AVC, П ...
  • Невозможное / Lo imposible (Хуан Антонио Байона, драма, 2012) [BDRip 720p, ...
  • Невозможное / Lo imposible (Хуан Антонио Байона, Драма, 2012) [BDRip, Профе ...
  • Невозможное / Lo imposible (Хуан Антонио Байона, триллер, драма, 2012) [480 ...
  • Невозможное / Lo imposible (Хуан Антонио Байона, триллер, драма, 2012) [HDR ...
  • Невозможное / Lo imposible (Хуан Антонио Байона, триллер, драма, 2012) [HDR ...
  • Невозможное / Lo Imposible (Хуан Антонио Байона, драма, 2012) [HDRip, Профе ...
  • Невозможное / Lo imposible (Хуан Антонио Байона, триллер, драма, 2012) [BDR ...
  • Невозможное / Lo imposible (Хуан Антонио Байона, триллер, драма, 2012) [HDR ...
  • Невозможное / Lo imposible (Хуан Антонио Байона, триллер, драма, 2012) [BDR ...
  • Невозможное / Lo imposible (Хуан Антонио Байона, Триллер, драма, 2012) [HDR ...
  • Захват / Carjacked (Джон Бонито, триллер, 2011)[BDRip, Профессиональный (мн ...
  • Информация
    Посетители, находящиеся в группе Гости, не могут оставлять комментарии к данной публикации.