вход на сайт

Имя пользователя :
Пароль :

Восстановление пароля Регистрация
Реальные Парни / Stand Up Guys (Фишер Стивенс, Драма, комедия, криминал, 2012) [DVDRip, Профессиональный (полное дублирование)]
Рейтинг:
(голосов: 1)



[img]{THEME}/images/logopost.png[/img]



• Реальные Парни / Stand Up Guys •
«Жгут как в последний раз! Таких уже не делают»

Год выпуска: 2012
Страна: США
Производство: Sidney Kimmel Entertainment
Жанр: Драма, комедия, криминал

Режиссёр: Фишер Стивенс
В ролях: Аль Пачино, Кристофер Уокен, Алан Аркин, Джулианна Маргулис, Марк Марголис, Люси Панч, Эддисон Тимлин, Ванесса Ферлито, Кэтрин Уинник, Билли Барр, Бен Мендельсон, Винсент Куратола, Тревор Лонг, Макс Каселла, Сэм Шепард

Перевод: Профессиональный (полное дублирование)
Субтитры: Нет

Описание: История строится вокруг двух уже немолодых преступников, один из которых получил задание убить близкого друга. Столь непростая ситуация требует времени на обдумывание, и киллеры решают вместе с приятелем изрядно побуянить (включая посещение борделя, угон машин и бегство от полиции), прежде чем будет принято окончательное решение.Дата премьеры (мир): 11 октября 2012
Дата премьеры (РФ): 31 января 2013, «Top Film Distribution»

Качество: DVDRip | Сэмпл | Сравнение скриншотов с этой раздачей
Продолжительность: 01:31:05


Формат: AVI
Видео кодек: XviD
Аудио кодек: MP3
Видео: 720x304 (2.35:1), 25 fps, XviD ~1006 kbps avg, 0.184 bit/pixel
Аудио: 48 kHz, MPEG Layer 3, 2 ch, 128.00 kbps


MediaInfo ▼TextGeneral
Format : AVI
Format/Info : Audio Video Interleave
File size : 745 MiB
Duration : 1h 31mn
Overall bit rate : 1 143 Kbps
Writing application : VirtualDubMod 1.5.10.3 | www.virtualdub-fr.org || (build 2550/release)
Writing library : VirtualDubMod build 2550/release

Video
ID : 0
Format : MPEG-4 Visual
Format profile : Advanced [email protected]
Format settings, BVOP : 1
Format settings, QPel : No
Format settings, GMC : No warppoints
Format settings, Matrix : Custom
Codec ID : XVID
Codec ID/Hint : XviD
Duration : 1h 31mn
Bit rate : 1 006 Kbps
Width : 720 pixels
Height : 304 pixels
Display aspect ratio : 2.35:1
Frame rate : 25.000 fps
Color space : YUV
Chroma subsampling : 4:2:0
Bit depth : 8 bits
Scan type : Progressive
Compression mode : Lossy
Bits/(Pixel*Frame) : 0.184
Stream size : 655 MiB (88%)
Writing library : XviD 64

Audio
ID : 1
Format : MPEG Audio
Format version : Version 1
Format profile : Layer 3
Codec ID : 55
Codec ID/Hint : MP3
Duration : 1h 31mn
Bit rate mode : Constant
Bit rate : 128 Kbps
Channel(s) : 2 channels
Sampling rate : 48.0 KHz
Compression mode : Lossy
Stream size : 83.4 MiB (11%)
Alignment : Aligned on interleaves
Interleave, duration : 40 ms (1.00 video frame)
Interleave, preload duration : 504 ms


Релиз Группы "Virtus"

Стол заказов / Вступление в РГ / Благодарности, критика и другое


553ab287de9e752644e35e2fd66bdd815cf09f85Реальные Парни / Stand Up Guys (Фишер Стивенс, Драма, комедия, криминал, 2012) [DVDRip, Профессиональный (полное дублирование)] Реальные Парни / Stand Up Guys (Фишер Стивенс, Драма, комедия, криминал, 2012) [DVDRip, Профессиональный (полное дублирование)] " />

Аплоадер: Админ, дата: 6-03-2013, 15:10, торрент скачан: 359 раз

Понравилась раздача? Посмотрите эти:
  • Реальные парни / Stand Up Guys (Фишер Стивенс, Драма, комедия, криминал, 20 ...
  • Реальные парни / Stand Up Guys (Фишер Стивенс, драма, комедия, криминал, 20 ...
  • Решала (Роман Асхаев, Драма,Криминал, 2012) [WEB-DLRip, Не требуется]
  • Реальные парни / Stand Up Guys (Фишер Стивенс, драма, комедия, криминал, 20 ...
  • Реальные парни / Stand Up Guys (Фишер Стивенс, Драма, комедия, криминал, 20 ...
  • Реальные Парни / Stand Up Guys (Фишер Стивенс, драма, комедия, криминал, 20 ...
  • Реальные Парни / Stand Up Guys (Фишер Стивенс, драма, комедия, криминал, 20 ...
  • Реальные парни / Stand Up Guys (Фишер Стивенс, Драма, комедия, криминал, 20 ...
  • Реальные парни / Stand Up Guys (Фишер Стивенс, драма, комедия, криминал, 20 ...
  • Реальные парни / Stand Up Guys (Фишер Стивенс, Драма, комедия, криминал, 20 ...
  • Диномама 3D / Dino Time (Юн-сок Чхве, Джон Кафка, Мультфильм, комедия, прик ...
  • Реальные парни / Stand Up Guys (Фишер Стивенс, Драма, комедия, криминал, 20 ...
  • Реальные парни / Stand Up Guys (Фишер Стивенс, драма, комедия, криминал, 20 ...
  • Реальные Парни / Stand Up Guys (Фишер Стивенс, Драма, комедия, криминал, 20 ...
  • Реальные Парни / Stand Up Guys (Фишер Стивенс, драма, комедия, криминал, 20 ...
  • Муви 43 / Movie 43 (Стивен Брилл, Питер Фаррелли, Элизабет БэнксСтивен, ком ...
  • Диномама 3D / Dino Time (Юн-сок Чхве, Джон Кафка, Мультфильм, комедия, прик ...
  • Весенние надежды / Hope Springs (Дэвид Фрэнкел, Драма, мелодрама, комедия, ...
  • Экипаж / Flight (Роберт Земекис, Драма, 2012) [BDRip, Профессиональный (пол ...
  • [Трейлер] Реальные парни / Stand Up Guys (Фишер Стивенс, драма, комедия, кр ...
  • Мой парень – псих / Silver Linings Playbook (Дэвид О. Расселл, Драма, мелод ...
  • Чемпионат Европы 2012 / Группа D / 1-й тур / Украина - Швеция / Спорт 1 [11 ...
  • Холостячки / Bachelorette (Лесли Хэдланд, комедия, 2012) [HDRip, Дубляж]
  • Последняя сказка Риты (Рената Литвинова, Фентези, драма, детектив, 2012) [D ...
  • Рука-убийца / Idle Hands (Родмен Флендер,ужасы, триллер, комедия, 1999) [HD ...
  • Информация
    Посетители, находящиеся в группе Гости, не могут оставлять комментарии к данной публикации.