вход на сайт

Имя пользователя :
Пароль :

Восстановление пароля Регистрация
Реальные Парни / Stand Up Guys (Фишер Стивенс, Драма, комедия, криминал, 2012) [DVDRip, Профессиональный (полное дублирование)]
Рейтинг:
(голосов: 1)



[img]{THEME}/images/logopost.png[/img]



• Реальные Парни / Stand Up Guys •
«Жгут как в последний раз! Таких уже не делают»

Год выпуска: 2012
Страна: США
Производство: Sidney Kimmel Entertainment
Жанр: Драма, комедия, криминал

Режиссёр: Фишер Стивенс
В ролях: Аль Пачино, Кристофер Уокен, Алан Аркин, Джулианна Маргулис, Марк Марголис, Люси Панч, Эддисон Тимлин, Ванесса Ферлито, Кэтрин Уинник, Билли Барр, Бен Мендельсон, Винсент Куратола, Тревор Лонг, Макс Каселла, Сэм Шепард

Перевод: Профессиональный (полное дублирование)
Субтитры: Нет

Описание: История строится вокруг двух уже немолодых преступников, один из которых получил задание убить близкого друга. Столь непростая ситуация требует времени на обдумывание, и киллеры решают вместе с приятелем изрядно побуянить (включая посещение борделя, угон машин и бегство от полиции), прежде чем будет принято окончательное решение.Дата премьеры (мир): 11 октября 2012
Дата премьеры (РФ): 31 января 2013, «Top Film Distribution»

Качество: DVDRip | Сэмпл | Сравнение скриншотов с этой раздачей
Продолжительность: 01:31:05


Формат: AVI
Видео кодек: XviD
Аудио кодек: AC3
Видео: 720x304 (2.35:1), 25 fps, XviD ~1833 kbps avg, 0.335 bit/pixel
Аудио: 48 kHz, AC3 Dolby Digital, 3/2 (L,C,R,l,r) + LFE ch, ~448.00 kbps avg


MediaInfo ▼TextGeneral
Format : AVI
Format/Info : Audio Video Interleave
File size : 1.46 GiB
Duration : 1h 31mn
Overall bit rate : 2 290 Kbps
Writing application : VirtualDubMod 1.5.10.3 | www.virtualdub-fr.org || (build 2550/release)
Writing library : VirtualDubMod build 2550/release

Video
ID : 0
Format : MPEG-4 Visual
Format profile : Advanced [email protected]
Format settings, BVOP : 1
Format settings, QPel : No
Format settings, GMC : No warppoints
Format settings, Matrix : Custom
Codec ID : XVID
Codec ID/Hint : XviD
Duration : 1h 31mn
Bit rate : 1 833 Kbps
Width : 720 pixels
Height : 304 pixels
Display aspect ratio : 2.35:1
Frame rate : 25.000 fps
Color space : YUV
Chroma subsampling : 4:2:0
Bit depth : 8 bits
Scan type : Progressive
Compression mode : Lossy
Bits/(Pixel*Frame) : 0.335
Stream size : 1.17 GiB (80%)
Writing library : XviD 64

Audio
ID : 1
Format : AC-3
Format/Info : Audio Coding 3
Mode extension : CM (complete main)
Format settings, Endianness : Big
Codec ID : 2000
Duration : 1h 31mn
Bit rate mode : Constant
Bit rate : 448 Kbps
Channel(s) : 6 channels
Channel positions : Front: L C R, Side: L R, LFE
Sampling rate : 48.0 KHz
Bit depth : 16 bits
Compression mode : Lossy
Stream size : 292 MiB (20%)
Alignment : Split accross interleaves
Interleave, duration : 40 ms (1.00 video frame)
Interleave, preload duration : 500 ms


Релиз Группы "Virtus"

Стол заказов / Вступление в РГ / Благодарности, критика и другое


66046820f303bd5826a0571cb5f5f0c020b52c20Реальные Парни / Stand Up Guys (Фишер Стивенс, Драма, комедия, криминал, 2012) [DVDRip, Профессиональный (полное дублирование)] Реальные Парни / Stand Up Guys (Фишер Стивенс, Драма, комедия, криминал, 2012) [DVDRip, Профессиональный (полное дублирование)] " />

Аплоадер: Админ, дата: 6-03-2013, 14:12, торрент скачан: 359 раз

Понравилась раздача? Посмотрите эти:
  • Реальные парни / Stand Up Guys (Фишер Стивенс, Драма, комедия, криминал, 20 ...
  • Реальные парни / Stand Up Guys (Фишер Стивенс, драма, комедия, криминал, 20 ...
  • Реальные парни / Stand Up Guys (Фишер Стивенс, драма, комедия, криминал, 20 ...
  • Реальные парни / Stand Up Guys (Фишер Стивенс, Драма, комедия, криминал, 20 ...
  • Реальные Парни / Stand Up Guys (Фишер Стивенс, драма, комедия, криминал, 20 ...
  • Реальные Парни / Stand Up Guys (Фишер Стивенс, драма, комедия, криминал, 20 ...
  • Реальные парни / Stand Up Guys (Фишер Стивенс, Драма, комедия, криминал, 20 ...
  • Реальные парни / Stand Up Guys (Фишер Стивенс, драма, комедия, криминал, 20 ...
  • Реальные парни / Stand Up Guys (Фишер Стивенс, Драма, комедия, криминал, 20 ...
  • Реальные парни / Stand Up Guys (Фишер Стивенс, Драма, комедия, криминал, 20 ...
  • Реальные парни / Stand Up Guys (Фишер Стивенс, драма, комедия, криминал, 20 ...
  • Любовь на кончиках пальцев / Populaire (Режис Ройнсар, Мелодрама, комедия, ...
  • Реальные Парни / Stand Up Guys (Фишер Стивенс, Драма, комедия, криминал, 20 ...
  • Реальные Парни / Stand Up Guys (Фишер Стивенс, драма, комедия, криминал, 20 ...
  • Муви 43 / Movie 43 (Стивен Брилл, Питер Фаррелли, Элизабет БэнксСтивен, ком ...
  • Весенние надежды / Hope Springs (Дэвид Фрэнкел, Драма, мелодрама, комедия, ...
  • Покорители Волн / Chasing Mavericks (Майкл Эптед, Кёртис Хэнсон, Драма, спо ...
  • Экипаж / Flight (Роберт Земекис, Драма, 2012) [BDRip, Профессиональный (пол ...
  • [Трейлер] Реальные парни / Stand Up Guys (Фишер Стивенс, драма, комедия, кр ...
  • Коллекционер 2 / The Collection (Маркус Данстэн, ужасы, боевик, триллер , 2 ...
  • Информация
    Посетители, находящиеся в группе Гости, не могут оставлять комментарии к данной публикации.