вход на сайт

Имя пользователя :
Пароль :

Восстановление пароля Регистрация
Любовь на кончиках пальцев / Populaire (Режис Ройнсар, Мелодрама, комедия, 2012) [DVDRip, Профессиональный (многоголосый, закадровый)]
Рейтинг:
(голосов: 1)



[img]{THEME}/images/logopost.png[/img]



• Любовь на кончиках пальцев / Populaire •
-

Год выпуска: 2012
Страна: Франция
Производство: Les Productions du Tresor, Compagnie Cinematographique Europeenne, La, France 3 Cinema
Жанр: Мелодрама, комедия

Режиссёр: Режис Ройнсар
В ролях: Ромен Дюрис, Дебора Франсуа, Беренис Бежо, Шон Бенсон, Мелани Бернье, Николя Бедо, Миу-Миу, Эдди Митчелл, Фредерик Пьеро, Федор Аткин

Перевод: Профессиональный (многоголосый, закадровый)
Субтитры: Нет

Описание: Роза живет в провинции со своим отцом, обручена с самым выгодным женихом их городка, и казалось бы, ей предначертана тихая спокойная жизнь домохозяйки. Однако все меняется, когда она встречает красавца Луиса: вместе им предстоит покорить весь мир.Дата премьеры (мир): 17 ноября 2012
Дата премьеры (РФ): 31 января 2013, «Премиум Фильм»

Качество: DVDRip |Сэмпл | Сравнение скриншотов с этой раздачей
Продолжительность: 01:48:13


Формат: AVI
Видео кодек: XviD
Аудио кодек: MP3
Видео: 688x288 (2,40:1), 25.000 fps, XviD ~825kbps avg, 0.167 bit/pixel
Аудио: 48 kHz, MPEG Layer 3, 2 ch, 128.00 kbps


MediaInfo ▼TextGeneral
Format : AVI
Format/Info : Audio Video Interleave
File size : 745 MiB
Duration : 1h 48mn
Overall bit rate : 962 Kbps
Writing application : VirtualDubModRus 1.5.10.2 (build 2542/release)
Writing library : VirtualDubMod build 2542/release

Video
ID : 0
Format : MPEG-4 Visual
Format profile : Advanced [email protected]
Format settings, BVOP : 1
Format settings, QPel : No
Format settings, GMC : No warppoints
Format settings, Matrix : Custom
Codec ID : XVID
Codec ID/Hint : XviD
Duration : 1h 48mn
Bit rate : 825 Kbps
Width : 688 pixels
Height : 288 pixels
Display aspect ratio : 2.40:1
Frame rate : 25.000 fps
Color space : YUV
Chroma subsampling : 4:2:0
Bit depth : 8 bits
Scan type : Progressive
Compression mode : Lossy
Bits/(Pixel*Frame) : 0.167
Stream size : 638 MiB (86%)
Writing library : XviD 65

Audio
ID : 1
Format : MPEG Audio
Format version : Version 1
Format profile : Layer 3
Mode : Joint stereo
Mode extension : MS Stereo
Codec ID : 55
Codec ID/Hint : MP3
Duration : 1h 48mn
Bit rate mode : Constant
Bit rate : 128 Kbps
Channel(s) : 2 channels
Sampling rate : 48.0 KHz
Compression mode : Lossy
Stream size : 99.1 MiB (13%)
Alignment : Aligned on interleaves
Interleave, duration : 40 ms (1.00 video frame)
Interleave, preload duration : 504 ms


Релиз Группы "Virtus"

Стол заказов / Вступление в РГ / Благодарности, критика и другое


247beaf07e8d0e05b76ce837631532dd4afaa8c0Любовь на кончиках пальцев / Populaire (Режис Ройнсар, Мелодрама, комедия, 2012) [DVDRip, Профессиональный (многоголосый, закадровый)] Любовь на кончиках пальцев / Populaire (Режис Ройнсар, Мелодрама, комедия, 2012) [DVDRip, Профессиональный (многоголосый, закадровый)] " />

Аплоадер: Админ, дата: 6-03-2013, 03:45, торрент скачан: 359 раз

Понравилась раздача? Посмотрите эти:
  • Непристойная комедия / InAPPropriate Comedy (Винс Оффер, комедия, 2013) [DV ...
  • Любовь на кончиках пальцев / Populaire (Режис Ройнсар, Мелодрама, комедия, ...
  • Любовь на кончиках пальцев / Populaire (Режис Ройнсар, Мелодрама, комедия, ...
  • Безопасность не гарантируется / Safety Not Guaranteed (Колин Треворроу, фан ...
  • Любовь на кончиках пальцев / Populaire (Режис Ройнсар, Мелодрама, комедия, ...
  • Любовь на кончиках пальцев / Populaire (Режис Ройнсар, Мелодрама, комедия, ...
  • В хлам / Smashed (Джеймс Понсольдт, Драма, комедия, 2012) [HDRip, Профессио ...
  • Любовь на кончиках пальцев / Populaire (Режис Ройнсар, мелодрама, комедия, ...
  • Муви 43 / Movie 43 (Стивен Брилл, Питер Фаррелли, Элизабет БэнксСтивен, ком ...
  • Магазин самоубийств / Le magasin des suicides (Патрис Леконт, Мультфильм, м ...
  • Лучший стрелок / Top Gun (Тони Скотт, боевик, драма, мелодрама, 1986) [BDRi ...
  • Плохая актриса / Bad Actress (Роберт Ли Кинг, комедия, 2011) [DVDRip, Профе ...
  • Эрик Викинг / Erik the Viking (Терри Джонс, фэнтези, комедия, приключения, ...
  • Мой парень – псих / Silver Linings Playbook (Дэвид О. Расселл, Драма, мелод ...
  • Майский дождь (Евгений Лаврентьев, мелодрама, комедия, 2012) [DVDRip, Не тр ...
  • Последняя сказка Риты (Рената Литвинова, Фентези, драма, детектив, 2012) [D ...
  • Маленький Николя / Le Petit Nicolas ( Лорен Тирар,комедия, семейный,2009 ) ...
  • Вскрытие инопланетянина/Alien Autopsy (Джонни Кэмпбелл, Комедия, фантастика ...
  • Семь дней на Земле / Meant to Be (Пол Брюлс, Мелодрама, Комедия, 2010) [DVD ...
  • Романтики / The Romantics (Галт Нидерхоффер, Драма, мелодрама, комедия, 201 ...
  • Мгновение любви / Here (Браден Кинг, Драма, мелодрама, приключения, 2011) [ ...
  • Музыка нас связала / You Instead (Дэвид МакКензи, Драма, комедия, музыка, 2 ...
  • Робинзон Крузо / Robinson Crusoe (Род Харди, Джордж Миллер, драма, приключе ...
  • Из джунглей в джунгли / Jungle 2 Jungle (Джон Пасквин, комедия, приключения ...
  • Табу / Tabu (Мигель Гомеш, Драма, мелодрама, 2012) [DVDRip, Профессиональны ...
  • Информация
    Посетители, находящиеся в группе Гости, не могут оставлять комментарии к данной публикации.