вход на сайт

Имя пользователя :
Пароль :

Восстановление пароля Регистрация
Неуловимые / Red Dawn (Дэн Брэдли, боевик, 2012) [HDRip, Профессиональный (многоголосый закадровый)]
Рейтинг:
(голосов: 1)



[img]{THEME}/images/logopost.png[/img]



•Неуловимые / Red Dawn •
«Не отступать и не сдаваться»
♥ Год выпуска: 2012
♥ Страна: США
♥ Производство: FilmDistrict, Contrafilm, Metro-Goldwyn-Mayer
♥ Жанр: боевик

♥ Режиссёр: Дэн Брэдли
♥ В ролях: Крис Хемсворт, Джош Пек, Джош Хатчерсон, Эдрианн Палики, Изабель Лукас, Джеффри Дин Морган, Коннор Круз, Эдвин Ходж, Бретт Каллен, Алисса Диаз

♥ Перевод: Профессиональный (многоголосый закадровый)
♥ Озвучка: BaibaKo
♥ Субтитры: Отсутствуют
♥ Описание: Недалекое будущее. Новый тип оружия сделал даже крупнейшие сверхдержавы беспомощными перед массированным вторжением войск противника. Теперь война пришла в каждый дом. Восемь обычных американских парней и девушек решают не сдаваться без боя. Они организовывают отряд сопротивления «Росомахи». Их миссия — создавать хаос. От их смекалки и силы духа будет зависеть, есть ли у мира шанс пережить красный рассвет Третьей Мировой Войны.



♥ Качество: HDRip
♥ Продолжительность: 01:33:21 час.

♥ Формат: AVI
♥ Видео кодек: XviD
♥ Аудио кодек: MP3
♥ Видео: 688x288 (2.40:1), 23.976 fps, XviD build 50 ~976 kbps avg, 0.205 bit/pixel
♥ Аудио: 48.0 kHz, MPEG Layer 3, 2 ch, ~128. kbps avg
♥ Дата премьеры (мир): 27 сентября 2012
♥ Дата премьеры (РФ): 14 марта 2013, «Вольга»
MediaInfo: ▼
Text
General
Complete name : D:Red_Dawn_2012_HDRip..avi
Format : AVI
Format/Info : Audio Video Interleave
File size : 743 MiB
Duration : 1h 33mn
Overall bit rate : 1 113 Kbps
Writing application : VirtualDubMod 1.5.10.2 (build 2540/release)
Writing library : VirtualDubMod build 2540/release
Video #0
ID : 0
Format : MPEG-4 Visual
Format profile : Advanced [email protected]
Format settings, BVOP : 1
Format settings, QPel : No
Format settings, GMC : No warppoints
Format settings, Matrix : Custom
Codec ID : XVID
Codec ID/Hint : XviD
Duration : 1h 33mn
Bit rate : 976 Kbps
Width : 688 pixels
Height : 288 pixels
Display aspect ratio : 2.40:1
Frame rate : 23.976 fps
Color space : YUV
Chroma subsampling : 4:2:0
Bit depth : 8 bits
Scan type : Progressive
Compression mode : Lossy
Bits/(Pixel*Frame) : 0.205
Stream size : 652 MiB (88%)
Writing library : XviD 1.2.1 (UTC 2008-12-04)
Audio #1
ID : 1
Format : MPEG Audio
Format version : Version 1
Format profile : Layer 3
Codec ID : 55
Codec ID/Hint : MP3
Duration : 1h 33mn
Bit rate mode : Constant
Bit rate : 128 Kbps
Channel(s) : 2 channels
Sampling rate : 48.0 KHz
Compression mode : Lossy
Stream size : 85.5 MiB (11%)
Alignment : Aligned on interleaves
Interleave, duration : 42 ms (1.00 video frame)
Interleave, preload duration : 504 ms
Writing library : LAME3.97
Encoding settings : -m s -V 4 -q 2 -lowpass 17 -b 128
Релиз Группы "Virtus"

Стол заказов / Вступление в РГ / Благодарности, критика и другое



0ad8d8700583e9dcfc3f32ffc6838a02eebeb3dfНеуловимые / Red Dawn (Дэн Брэдли, боевик, 2012) [HDRip, Профессиональный (многоголосый закадровый)] Неуловимые / Red Dawn (Дэн Брэдли, боевик, 2012) [HDRip, Профессиональный (многоголосый закадровый)] " />

Аплоадер: Админ, дата: 5-03-2013, 23:46, торрент скачан: 359 раз

Понравилась раздача? Посмотрите эти:
  • Погнали! / Getaway (Кортни Соломон, Боевик,Криминал, 2013) [HDRip, Професси ...
  • Неуловимые / Red Dawn (Дэн Брэдли, Боевик, 2012) [BDRip-AVC, Дубляж, Оригин ...
  • Неуловимые / Red Dawn (Дэн Брэдли, Боевик, 2012) [BDRip, Дубляж, Профессион ...
  • Неуловимые / Red Dawn (Дэн Брэдли, боевик, 2012) [BDRip-AVC, Профессиональн ...
  • Неуловимые / Red Dawn (Дэн Брэдли, боевик, 2012) [HDRip, Профессиональный ( ...
  • Неуловимые / Red Dawn (Дэн Брэдли, боевик, 2012) [HDRip-AVC, Профессиональн ...
  • Неуловимые / Red Dawn (Дэн Брэдли, боевик, 2012) [HDRip, Профессиональный ( ...
  • Неуловимые / Red Dawn (Дэн Брэдли, боевик, 2012) [HDRip, Профессиональный ( ...
  • Неуловимые / Red Dawn (Дэн Брэдли, Боевик, 2012) [HDRip-AVC, Профессиональн ...
  • Неуловимые / Red Dawn (Дэн Брэдли, боевик, 2012) [BDRip 1080p, Профессионал ...
  • Неуловимые / Red Dawn (Дэн Брэдли, Боевик, 2012) [BDRip-AVC, Профессиональн ...
  • Скуби-Ду! Маска Синего Сокола / Scooby-Doo! Mask Of The Blue Falcon (Оливье ...
  • Лучший стрелок / Top Gun (Тони Скотт, боевик, драма, мелодрама, 1986) [BDRi ...
  • Мой парень – псих / Silver Linings Playbook (Дэвид О. Расселл, Драма, мелод ...
  • Чемпионат Европы 2012 / Группа D / 1-й тур / Украина - Швеция / Спорт 1 [11 ...
  • Tank Feat. T.I. & Kris Stephens / Compliments [2012, RnB,Hip-Hop, HDRip]
  • Индиана Джонс: В поисках утраченного ковчега / Indiana Jones and the Raider ...
  • Чемпионат Европы 2012 / Группа B / 1-й тур / Германия - Португалия / Спорт ...
  • Замёрзший мир / 2012: Ice Age (Трэвис Форт, фантастика, боевик, 2011) [HDRi ...
  • Глушь / Resurrection County (Matt Zettell, ужасы, триллер, 2008) [DVDRip, П ...
  • Информация
    Посетители, находящиеся в группе Гости, не могут оставлять комментарии к данной публикации.