вход на сайт

Имя пользователя :
Пароль :

Восстановление пароля Регистрация
Искатели могил 2 / Grave Encounters 2 (Джон Поликуин, Ужасы, мистика, 2012) [HDRip, Профессиональный (многоголосый закадровый)]
Рейтинг:
(голосов: 1)



[img]{THEME}/images/logopost.png[/img]



• Искатели могил 2 / Grave Encounters 2 •
«Вы думали, что фильм закончился - и всё?»

Год выпуска: 2012
Страна: Канада, США
Производство: Pink Buffalo Films
Жанр: Ужасы, мистика

Режиссёр: Джон Поликуин
В ролях: Шон С. Филлипс, Дженника Фултон, Джеффри Бауэр-Чепман, Чарли Керр, Франциско Пассуэло, Эндрю Ампфлетт, Дж. Джонс, Майк Холц, Кэлвин Валантус, Зэк Лоркевич

Перевод: Профессиональный (многоголосый закадровый)
Субтитры: Нет

Описание: В руки к режиссёру-юнцу Алексу попадает фильм ужасов «Искатели могил». Кино не производит на него впечатления, но отношение Алекса меняется, когда ему анонимно присылают странный видеоролик, смахивающий на вырезанную сценку из «Искателей». Заинтересовавшись посланием, Алекс пытается найти создателей хитового ужастика.
Тщетность этих попыток наталкивает парня на мысль, что снятое в «Искателях» произошло на самом деле, и авторы фильма мертвы. Продолжая расследование и получая новые доказательства своей теории, Алекс решается на последний шаг: он предлагает своим друзьям забраться в ту самую заброшенную психушку, где снимались «Искатели могил».Дата премьеры (мир): 2 октября 2012
Дата премьеры (РФ): 10 января 2013, «Top Film Distribution»

Качество: HDRip |Сэмпл
Продолжительность: 01:38:45


Формат: AVI
Видео кодек: XviD
Аудио кодек: AC3
Видео: 720x400 (16:9), 23.976 fps, XviD MPEG-4 ~1659kbps avg, 0.240 bit/pixel
Аудио: 48 kHz, AC3 Dolby Digital, 3/2 (L,C,R,l,r) + LFE ch, ~448.00 kbps avg


MediaInfo ▼TextGeneral
Format : AVI
Format/Info : Audio Video Interleave
File size : 1.46 GiB
Duration : 1h 38mn
Overall bit rate : 2 116 Kbps
Writing application : VirtualDubMod 1.5.10.2 (build 2542/release)
Writing library : VirtualDubMod build 2542/release
Video #0
ID : 0
Format : MPEG-4 Visual
Format profile : Advanced [email protected]
Format settings, BVOP : Yes
Format settings, QPel : No
Format settings, GMC : No warppoints
Format settings, Matrix : Default (MPEG)
Codec ID : XVID
Codec ID/Hint : XviD
Duration : 1h 38mn
Bit rate : 1 659 Kbps
Width : 720 pixels
Height : 400 pixels
Display aspect ratio : 16:9
Frame rate : 23.976 fps
Color space : YUV
Chroma subsampling : 4:2:0
Bit depth : 8 bits
Scan type : Progressive
Compression mode : Lossy
Bits/(Pixel*Frame) : 0.240
Stream size : 1.14 GiB (78%)
Writing library : XviD 1.2.1 (UTC 2008-12-04)
Audio #1
ID : 1
Format : AC-3
Format/Info : Audio Coding 3
Mode extension : CM (complete main)
Codec ID : 2000
Duration : 1h 38mn
Bit rate mode : Constant
Bit rate : 448 Kbps
Channel(s) : 6 channels
Channel positions : Front: L C R, Side: L R, LFE
Sampling rate : 48.0 KHz
Bit depth : 16 bits
Compression mode : Lossy
Video delay : 26ms
Stream size : 316 MiB (21%)
Alignment : Split accross interleaves
Interleave, duration : 42 ms (1.00 video frame)
Interleave, preload duration : 500 ms


Релиз Группы "Virtus"

Стол заказов / Вступление в Р
21d5c22c62271b404b9b71955b9fe0da8173653eИскатели могил 2 / Grave Encounters 2 (Джон Поликуин, Ужасы, мистика, 2012) [HDRip, Профессиональный (многоголосый закадровый)] Искатели могил 2 / Grave Encounters 2 (Джон Поликуин, Ужасы, мистика, 2012) [HDRip, Профессиональный (многоголосый закадровый)] " />

Аплоадер: Админ, дата: 5-03-2013, 12:32, торрент скачан: 359 раз

Понравилась раздача? Посмотрите эти:
  • Погнали! / Getaway (Кортни Соломон, Боевик, Криминал, 2013) [HDRip, Професс ...
  • Верное дельце / Une pure affaire (Александр Коффре, Боевик, Комедия, Кримин ...
  • Мои герои / Mes heros (Эрик Беснард, комедия, 2012) [HDRip, Профессиональны ...
  • Посылка / The Package (Джесси Джонсон, боевик, 2013) [HDRip, Профессиональн ...
  • Мужество / Wymyk (Грег Зглински, драма, 2011) [DVDRip, Любительский (одного ...
  • 42 / 42 (Брайан Хелгеленд, драма, биография, спорт, 2013) [BDRip, Профессио ...
  • Ночь тамплиера / Night of the Templar (Пол Сэмпсон, Ужасы, фантастика, боев ...
  • 23:59 / 23:59 (Гилберт Чан, Ужасы, 2011) [HDRip, Любительский (одноголосый ...
  • Любовь на кончиках пальцев / Populaire (Режис Ройнсар, Мелодрама, комедия, ...
  • Безопасность не гарантируется / Safety Not Guaranteed (Колин Треворроу, фан ...
  • Искатели могил 2 / Grave Encounters 2 (Джон Поликвин, ужасы, 2012) [HDRip, ...
  • [iPhone, iPod]Искатели могил 2 / Grave Encounters 2 (Джон Поликвин, Ужасы, ...
  • В хлам / Smashed (Джеймс Понсольдт, Драма, комедия, 2012) [HDRip, Профессио ...
  • Искатели могил 2 / Grave Encounters 2 (Джон Поликуин, ужасы, 2012) [HDRip-A ...
  • Плохая актриса / Bad Actress (Роберт Ли Кинг, комедия, 2011) [DVDRip, Профе ...
  • Доля ангелов / The Angels Share (Кен Лоуч, драма, комедия, 2012) [HDRip, Пр ...
  • Супер циклон / Super Cyclone (Лиз Адамс / Liz Adams, боевик, 2012) [HDRip, ...
  • Захват / Carjacked (Джон Бонито, триллер, 2011)[BDRip, Профессиональный (мн ...
  • Искатели могил / Grave Encounters (Bишec Брaзepc / Thе Viсiоus Вrоthеrs, уж ...
  • Tank Feat. T.I. & Kris Stephens / Compliments [2012, RnB,Hip-Hop, HDRip]
  • Битва в пустыне / The Objective (Дэниэл Мирик, ужасы, фантастика, триллер, ...
  • Супершторм в Сиэтле / Seattle Superstorm (Джейсон Бурк, фантастика, боевик ...
  • Искажение / Skew (Сейв Челенз, ужасы, триллер, 2011) [HDRip, Профессиональн ...
  • [Трейлер] Искатели могил 2 / Grave Encounters 2 (Джон Поликуин, ужасы) [HDR ...
  • За гранью / Beyond (Йозеф Руснак, триллер, 2012) [HDRip, Профессиональный ...
  • Информация
    Посетители, находящиеся в группе Гости, не могут оставлять комментарии к данной публикации.