вход на сайт

Имя пользователя :
Пароль :

Восстановление пароля Регистрация
Большие Надежды / Great Expectations (Майк Ньюэлл, драма, 2012) [BDRip, Дубляж]
Рейтинг:
(голосов: 1)



[img]{THEME}/images/logopost.png[/img]



•Большие Надежды / Great Expectations •
«Загадочная история о поисках счастья»
♥ Год выпуска: 2012
♥ Страна: Великобритания, США
♥ Производство: BBC Films, Lipsync Productions, Number 9 Films
♥ Жанр: драма

♥ Режиссёр: Майк Ньюэлл
♥ В ролях: Джереми Ирвин, Холлидей Грейнджер, Рэйф Файнс, Хелена Бонем Картер, Джейсон Флеминг, Робби Колтрейн, Юэн Бремнер, Салли Хокинс, Дэвид Уоллиамс, Софи Рандл

♥ Перевод: Дубляж
♥ Субтитры: Отсутствуют
♥ Описание: В центре сюжета — история молодого человека по имени Пип, который рано остался без родителей и был воспитан взбалмошной сестрой. Серая жизнь Пипа круто меняется, когда он помогает на кладбище освободиться от кандалов беглому каторжнику. Именно этот поступок вскоре приводит к череде головокружительных событий в жизни молодого человека.



♥ Качество: BDRip | [Исх. Blu-Ray]
♥ Продолжительность: 02:08:13 час.

♥ Формат: AVI
♥ Видео кодек: XviD
♥ Аудио кодек: AC3
♥ Видео: 720x400 (16:9), 24 fps, XviD build 50 ~1832 kbps avg, 0.265 bit/pixel
♥ Аудио1: 48 kHz, AC3 Dolby Digital, 3/2 (L,C,R,l,r) + LFE ch, ~448 kbps
♥ Дата премьеры (мир): 11 сентября 2012
♥ Дата премьеры (РФ): 24 января 2013, «Каравелла DDC»
MediaInfo: ▼
Text
General
Complete name : D:Bolshie.nadezhdy.2012.D.BDRip.avi
Format : AVI
Format/Info : Audio Video Interleave
Format profile : OpenDML
File size : 2.05 GiB
Duration : 2h 8mn
Overall bit rate : 2 292 Kbps
Movie name : Bolshie.nadezhdy.2012.D.BDRip.
Genre : Drama
Writing application : VirtualDubMod 1.5.10.3 | www.virtualdub-fr.org || (build 2550/release)
Original source form/Name : Movie
Video #0
ID : 0
Format : MPEG-4 Visual
Format profile : Advanced [email protected]
Format settings, BVOP : 1
Format settings, QPel : No
Format settings, GMC : No warppoints
Format settings, Matrix : Custom
Codec ID : XVID
Codec ID/Hint : XviD
Duration : 2h 8mn
Bit rate : 1 832 Kbps
Width : 720 pixels
Height : 400 pixels
Display aspect ratio : 16:9
Frame rate : 24.000 fps
Color space : YUV
Chroma subsampling : 4:2:0
Bit depth : 8 bits
Scan type : Progressive
Compression mode : Lossy
Bits/(Pixel*Frame) : 0.265
Stream size : 1.64 GiB (80%)
Writing library : XviD 1.2.1 (UTC 2008-12-04)
Audio #1
ID : 1
Format : AC-3
Format/Info : Audio Coding 3
Mode extension : CM (complete main)
Codec ID : 2000
Duration : 2h 8mn
Bit rate mode : Constant
Bit rate : 448 Kbps
Channel(s) : 6 channels
Channel positions : Front: L C R, Side: L R, LFE
Sampling rate : 48.0 KHz
Bit depth : 16 bits
Compression mode : Lossy
Stream size : 411 MiB (20%)
Alignment : Split accross interleaves
Interleave, duration : 42 ms (1.00 video frame)
Interleave, preload duration : 500 ms
Релиз Группы "Virtus"

Стол заказов / Вступление в РГ / Благодарности, критика и другое



e9a2b455dfe917b02e2be3f2f76759634a70faabБольшие Надежды / Great Expectations (Майк Ньюэлл, драма, 2012) [BDRip, Дубляж] Большие Надежды / Great Expectations (Майк Ньюэлл, драма, 2012) [BDRip, Дубляж] " />

Аплоадер: Админ, дата: 3-03-2013, 01:08, торрент скачан: 359 раз

Понравилась раздача? Посмотрите эти:
  • Вирус / Flu (Ким Сон Су, Драма, 2013) [HDTVRip, Любительский (двухголосый з ...
  • Мои герои / Mes heros (Эрик Беснард, комедия, 2012) [HDRip, Профессиональны ...
  • Великий Гэтсби / The Great Gatsby (Баз Лурман, Драма, мелодрама, 2013) [BDR ...
  • Мужество / Wymyk (Грег Зглински, драма, 2011) [DVDRip, Любительский (одного ...
  • 42 / 42 (Брайан Хелгеленд, драма, биография, спорт, 2013) [BDRip, Профессио ...
  • Неудержимый / Bullet to the Head (Уолтер Хилл, Боевик, триллер, криминал, 2 ...
  • Поймай толстуху, если сможешь [Театральная версия] / Identity Thief [Theatr ...
  • Решала (Роман Асхаев, Драма,Криминал, 2012) [WEB-DLRip, Не требуется]
  • Реальные Парни / Stand Up Guys (Фишер Стивенс, драма, комедия, криминал, 20 ...
  • Большие Надежды / Great Expectations (Майк Ньюэлл, драма, 2012) [HDRip, Про ...
  • Большие надежды / Great Expectations (Майк Ньюэлл, драма, 2012) [BDRip 720p ...
  • Большие надежды / Great Expectations (Майк Ньюэлл, драма, 2012) [Blu-Ray, Д ...
  • Большие Надежды / Great Expectations (Майк Ньюэлл, драма, 2012) [ВDRip, Про ...
  • Марко Макако / Marco Macaco (Жан Рабек, мультфильм, комедия, семейный, 2012 ...
  • Весенние надежды / Hope Springs (Дэвид Фрэнкел, Драма, мелодрама, комедия, ...
  • Экипаж / Flight (Роберт Земекис, Драма, 2012) [BDRip, Профессиональный (пол ...
  • Захват / Carjacked (Джон Бонито, триллер, 2011)[BDRip, Профессиональный (мн ...
  • Чемпионат Европы 2012 / Группа C / 1-й тур / Ирландия — Хорватия / ТРК Футб ...
  • Олимпиада 2012 / Мужчины / Группа D / 1-й тур / Испания — Япония / НТВ+ [Фу ...
  • Олимпиада 2012 / Футбол / Мужчины / Группа A / 3-й тур / Великобритания - У ...
  • Tank Feat. T.I. & Kris Stephens / Compliments [2012, RnB,Hip-Hop, HDRip]
  • Влюбленные (Валерий Бебко, Комедия, 2011) [DVDRip, Оригинал]
  • Трус / Faintheart (Вито Рокко, Комедия, 2008) [BDRip, Профессиональный (дву ...
  • Супершторм в Сиэтле / Seattle Superstorm (Джейсон Бурк, фантастика, боевик ...
  • Олимпиада 2012 / Женщины, Мужчины / Плавание / Квалификация / НТВ+ [30.07.2 ...
  • Информация
    Посетители, находящиеся в группе Гости, не могут оставлять комментарии к данной публикации.