вход на сайт

Имя пользователя :
Пароль :

Восстановление пароля Регистрация
Диномама 3D / Dino Time (Юн-сок Чхве, Джон Кафка, Мультфильм, комедия, приключения, семейный, 2012) [BDRip, Профессиональный (полное дублирование)]
Рейтинг:
(голосов: 1)



[img]{THEME}/images/logopost.png[/img]



• Диномама 3D / Dino Time •
«В Юрский период на машине времени»

Год выпуска: 2012
Страна: США, Корея Южная
Производство: CJ Entertainment
Жанр: Мультфильм, комедия, приключения, семейный

Режиссёр: Юн-сок Чхве / Yoon-suk Choi, Джон Кафка / John Kafka
В ролях: Джейн Линч, Роб Шнайдер, Памела Адлон, Уильям Болдуин, Тара Стронг, Мелани Гриффит, Стивен Болдуин, Юрий Ловенталь, Джессика Ди Чикко, Мелани Абрамофф...

Перевод: Профессиональный (полное дублирование)
Субтитры: Нет

Описание: Эрни, его сестра Джулия и лучший друг Макс — неразлучная троица. Однажды, друзья без спроса залезли в странное устройство, которое сконструировал папа Макса, и случайно нажали кнопку запуска. Устройство оказалось машиной времени, и ребята очутились в Юрском периоде, прямо в гнезде Тираннозавра. Но вот радость: самка гигантского ящера приняла ребят за своих детенышей. Но не все, конечно, так безоблачно в мире хищников. Кое-кто мечтает полакомиться непрошеными гостями! Друзьям нужно немедленно уносить ноги и подумать о возвращении. Но как это сделать, если важная деталь машины исчезла?Дата премьеры (мир): 30 ноября 2012
Дата премьеры (РФ): 31 января 2013, «Наше Кино»

Качество: BDRip |Сэмпл
Продолжительность: 01:21:55


Формат: AVI
Видео кодек: XviD
Аудио кодек: MP3
Видео: 656x352 (1.86:1), 23.976 fps, XviD build 65 ~1082 kbps avg, 0.20 bit/pixel
Аудио: 48 kHz, MPEG Layer 3, 2 ch, 128.00 kbps


MediaInfo ▼TextGeneral
Format : AVI
Format/Info : Audio Video Interleave
File size : 745 MiB
Duration : 1h 25mn
Overall bit rate : 1 219 Kbps
Writing application : VirtualDubMod 1.5.10.3 | www.virtualdub-fr.org || (build 2550/release)
Writing library : VirtualDubMod build 2550/release
Video #0
ID : 0
Format : MPEG-4 Visual
Format profile : Advanced [email protected]
Format settings, BVOP : Yes
Format settings, QPel : No
Format settings, GMC : No warppoints
Format settings, Matrix : Custom
Codec ID : XVID
Codec ID/Hint : XviD
Duration : 1h 25mn
Bit rate : 1 082 Kbps
Width : 656 pixels
Height : 352 pixels
Display aspect ratio : 1.864
Frame rate : 23.976 fps
Color space : YUV
Chroma subsampling : 4:2:0
Bit depth : 8 bits
Scan type : Progressive
Compression mode : Lossy
Bits/(Pixel*Frame) : 0.195
Stream size : 661 MiB (89%)
Writing library : XviD 65
Audio #1
ID : 1
Format : MPEG Audio
Format version : Version 1
Format profile : Layer 3
Codec ID : 55
Codec ID/Hint : MP3
Duration : 1h 25mn
Bit rate mode : Constant
Bit rate : 128 Kbps
Channel(s) : 2 channels
Sampling rate : 48.0 KHz
Compression mode : Lossy
Stream size : 78.1 MiB (10%)
Alignment : Aligned on interleaves
Interleave, duration : 42 ms (1.00 video frame)
Interleave, preload duration : 504 ms
Writing library : LAME3.99r
Encoding settings : -m s -V 4 -q 2 -lowpass 17 -b 128


Релиз Группы "Virtus"

Стол заказов / Вступление в РГ / Благодарности, критика и другое

5262ae4c283d8c7802a26fb538f352789ced2dcdДиномама 3D / Dino Time (Юн-сок Чхве, Джон Кафка, Мультфильм, комедия, приключения, семейный, 2012) [BDRip, Профессиональный (полное дублирование)] Диномама 3D / Dino Time (Юн-сок Чхве, Джон Кафка, Мультфильм, комедия, приключения, семейный, 2012) [BDRip, Профессиональный (полное дублирование)] " />

Аплоадер: Админ, дата: 3-03-2013, 00:29, торрент скачан: 359 раз

Понравилась раздача? Посмотрите эти:
  • Мэрайа Мунди и шкатулка Мидаса / The Adventurer: The Curse of the Midas Box ...
  • Воображариум / Imaginaerum (Стобе Харью, Фэнтези, приключения, мюзикл, драм ...
  • Решала (Роман Асхаев, Драма,Криминал, 2012) [WEB-DLRip, Не требуется]
  • [3D] Диномама 3D / Dino Time (Юн-сок Чхве, Джон Кафка, Мультфильм, комедия, ...
  • [3D] Диномама 3D / Dino Time (Юн-сок Чхве, Джон Кафка, Мультфильм, комедия, ...
  • Диномама 3D / Dino Time (Юн-сок Чхве, Джон Кафка, мультфильм, комедия, прик ...
  • Диномама 3D / Dino Time (Юн-сок Чхве, Джон Кафка, Мультфильм, комедия, прик ...
  • Диномама 3D / Dino Time (Юн-сок Чхве, Джон Кафка, Мультфильм, комедия, прик ...
  • Муви 43 / Movie 43 (Стивен Брилл, Питер Фаррелли, Элизабет БэнксСтивен, ком ...
  • Магазин самоубийств / Le magasin des suicides (Патрис Леконт, Мультфильм, м ...
  • Диномама 3D / Dino Time (Юн-сок Чхве, Джон Кафка, Мультфильм, комедия, прик ...
  • Скуби-Ду! Маска Синего Сокола / Scooby-Doo! Mask Of The Blue Falcon (Оливье ...
  • Диномама 3D / Dino Time (Юн-сок Чхве, Джон Кафка, мультфильм, комедия, прик ...
  • Весенние надежды / Hope Springs (Дэвид Фрэнкел, Драма, мелодрама, комедия, ...
  • Псы войны / The Dogs of War (Джон Ирвин, боевик, драма, приключения, военны ...
  • Экипаж / Flight (Роберт Земекис, Драма, 2012) [BDRip, Профессиональный (пол ...
  • Захват / Carjacked (Джон Бонито, триллер, 2011)[BDRip, Профессиональный (мн ...
  • Чемпионат Европы 2012 / Группа C / 1-й тур / Ирландия — Хорватия / ТРК Футб ...
  • Чемпионат Европы 2012 / Группа D / 1-й тур / Украина - Швеция / Спорт 1 [11 ...
  • Tank Feat. T.I. & Kris Stephens / Compliments [2012, RnB,Hip-Hop, HDRip]
  • Мулан 2 / Mulan II (Даррел Руни, Линн Сауферлэнд, мультфильм, мюзикл, боеви ...
  • Чемпионат Европы 2012 / Группа B / 1-й тур / Германия - Португалия / Спорт ...
  • Товарищеский матч 2012 / АмаЗулу (ЮАР) - Манчестер Юнайтед (Англия) / MU TV ...
  • Олимпиада 2012 / Женщины, Мужчины / Плавание / Квалификация / НТВ+ [30.07.2 ...
  • Рука-убийца / Idle Hands (Родмен Флендер,ужасы, триллер, комедия, 1999) [HD ...
  • Информация
    Посетители, находящиеся в группе Гости, не могут оставлять комментарии к данной публикации.