вход на сайт

Имя пользователя :
Пароль :

Восстановление пароля Регистрация
Цель Номер Один / Zero Dark Thirty (Кэтрин Бигелоу, боевик, триллер, драма, история, 2012) [HDRip, Авторский (одноголосый закадровый)]
Рейтинг:
(голосов: 1)



[img]{THEME}/images/logopost.png[/img]



•Цель Номер Один / Zero Dark Thirty •«Десять лет женщина провела в поисках самого опасного в мире человека»
♥ Год выпуска: 2012
♥ Страна: США
♥ Производство: Annapurna Pictures
♥ Жанр: триллер, драма, история

♥ Режиссёр: Кэтрин Бигелоу
♥ В ролях: Джессика Честейн, Джоэл Эдгертон, Эдгар Рамирез, Марк Стронг, Кайл Чандлер, Дженнифер Или, Джеймс Гандольфини, Стивен Диллэйн, Хэролд Перрино, Джейсон Кларк

♥ Перевод: Авторский (одноголосый закадровый) | Юрий Живов
♥ Субтитры: Отсутствуют
♥ Описание: История одной из операций спецслужб США по поимке «террориста N1» Усамы Бен Ладена.



♥ Качество: HDRip
♥ Продолжительность: 02:36:59 час.

♥ Формат: AVI
♥ Видео кодек: XviD
♥ Аудио кодек: MP3
♥ Видео: 720x384 (1.875), 23.976 fps, XviD MPEG-4 ~1 114kbps avg, 0.168 bit/pixel
♥ Аудио: 48 kHz, MPEG Layer 3, 2 ch, ~128.00 kbps avg
♥ Дата премьеры (мир): 19 декабря 2012
♥ Дата премьеры (РФ): 21 февраля 2013, «Централ Партнершип»
MediaInfo: ▼
TextGeneral
Complete name : D:Cel.nomer.odin.2012.P1.HDRip.1400MB.avi
Format : AVI
Format/Info : Audio Video Interleave
File size : 1.37 GiB
Duration : 2h 36mn
Overall bit rate : 1 251 Kbps
Writing application : VirtualDubMod 1.5.10.2 (build 2540/release)
Writing library : VirtualDubMod build 2540/release
Video #0
ID : 0
Format : MPEG-4 Visual
Format profile : Advanced [email protected]
Format settings, BVOP : 2
Format settings, QPel : No
Format settings, GMC : No warppoints
Format settings, Matrix : Default (MPEG)
Muxing mode : Packed bitstream
Codec ID : XVID
Codec ID/Hint : XviD
Duration : 2h 36mn
Bit rate : 1 114 Kbps
Width : 720 pixels
Height : 384 pixels
Display aspect ratio : 1.875
Frame rate : 23.976 fps
Color space : YUV
Chroma subsampling : 4:2:0
Bit depth : 8 bits
Scan type : Progressive
Compression mode : Lossy
Bits/(Pixel*Frame) : 0.168
Stream size : 1.22 GiB (89%)
Writing library : XviD 1.2.1 (UTC 2008-12-04)
Audio #1
ID : 1
Format : MPEG Audio
Format version : Version 1
Format profile : Layer 3
Mode : Joint stereo
Mode extension : MS Stereo
Codec ID : 55
Codec ID/Hint : MP3
Duration : 2h 36mn
Bit rate mode : Constant
Bit rate : 128 Kbps
Channel(s) : 2 channels
Sampling rate : 48.0 KHz
Compression mode : Lossy
Stream size : 144 MiB (10%)
Alignment : Aligned on interleaves
Interleave, duration : 42 ms (1.00 video frame)
Interleave, preload duration : 504 ms
Релиз Группы "Virtus"

Стол заказов / Вступление в РГ / Благодарности, критика и другое


55ee94ac327b6bb6b7f101f66d20f17334cb86d1Цель Номер Один / Zero Dark Thirty (Кэтрин Бигелоу, боевик, триллер, драма, история, 2012) [HDRip, Авторский (одноголосый закадровый)] Цель Номер Один / Zero Dark Thirty (Кэтрин Бигелоу, боевик, триллер, драма, история, 2012) [HDRip, Авторский (одноголосый закадровый)] " />

Аплоадер: Админ, дата: 15-03-2013, 19:30, торрент скачан: 359 раз

Понравилась раздача? Посмотрите эти:
  • Чемпионат Италии 2012-13 / 36-й тур / Рома — Кьево / НТВ+ [07.05.2013, SD, ...
  • Цель Номер Один / Zero Dark Thirty (Кэтрин Бигелоу, боевик, триллер, драма, ...
  • Цель Номер Один / Zero Dark Thirty (Кэтрин Бигелоу, триллер, драма, история ...
  • Цель Номер Один / Zero Dark Thirty (Кэтрин Бигелоу, Триллер, драма, история ...
  • Цель Номер Один / Zero Dark Thirty (Кэтрин Бигелоу, триллер, драма, история ...
  • Цель Номер Один / Zero Dark Thirty (Кэтрин Бигелоу, триллер, драма, история ...
  • Цель Номер Один / Zero Dark Thirty (Кэтрин Бигелоу, триллер, драма, история ...
  • Цель Номер Один / Zero Dark Thirty (Кэтрин Бигелоу, триллер, драма, история ...
  • Цель номер один / Zero Dark Thirty (Кэтрин Бигелоу, триллер, драма, история ...
  • Цель Номер Один / Zero Dark Thirty (Кэтрин Бигелоу, боевик, триллер, драма, ...
  • Скуби-Ду! Маска Синего Сокола / Scooby-Doo! Mask Of The Blue Falcon (Оливье ...
  • Псы войны / The Dogs of War (Джон Ирвин, боевик, драма, приключения, военны ...
  • Чемпионат Испании 2011-12 / 36-й тур / Реал Мадрид - Севилья / НТВ+ [Футбол ...
  • Чемпионат Европы 2012 / Группа C / 1-й тур / Ирландия — Хорватия / ТРК Футб ...
  • Чемпионат Европы 2012 / Группа D / 1-й тур / Украина - Швеция / Спорт 1 [11 ...
  • Олимпиада 2012 / Футбол / Мужчины / Группа A / 3-й тур / Великобритания - У ...
  • Tank Feat. T.I. & Kris Stephens / Compliments [2012, RnB,Hip-Hop, HDRip]
  • Олимпиада 2012 / Женщины, Мужчины / Плавание / Квалификация / НТВ+ [30.07.2 ...
  • Ничего, кроме правды / Nothing But the Truth (Род Лури, триллер, драма, 200 ...
  • [Трейлер] Нулевая видимость 30 / Zero Dark Thirty (Кэтрин Бигелоу, боевик, ...
  • Информация
    Посетители, находящиеся в группе Гости, не могут оставлять комментарии к данной публикации.