вход на сайт

Имя пользователя :
Пароль :

Восстановление пароля Регистрация
В Первый Раз / The First Time (Джон Кэздан, мелодрама, комедия, 2012) [DVDRip, Дубляж]
Рейтинг:
(голосов: 1)



[img]{THEME}/images/logopost.png[/img]



•В Первый Раз / The First Time • «Когда-то секс бывает в первый раз»
♥ Год выпуска: 2012
♥ Страна: США
♥ Производство: Destination Films
♥ Жанр: мелодрама, комедия

♥ Режиссёр: Джон Кэздан
♥ В ролях: Бриттани Робертсон, Дилан О’Брайэн, Джеймс Фрешвилл, Виктория Джастис, Крэйг Робертс, Мэгги Элизабет Джонс, Ламаркус Тинкер, Кристин Тейлор, Джошуа Малина, Хелстон Сейдж

♥ Перевод: Дубляж
♥ Субтитры: Отсутствуют
♥ Описание: Симпатяга Дэйв безнадежно и бесперспективно влюблен в первую школьную красавицу. Очаровательная Обри встречается с самодовольным мачо, который ей совершенно не подходит, но с которым она, зачем-то, решила лишиться девственности. И совсем неизвестно, как бы обернулись жизни двух этих замечательных молодых людей, если бы они случайно не столкнулись на вечеринке, которую разогнала полиция.
Обри и Дэйв становятся друзьями… нет вы не подумайте — только друзьями, которые могут поплакаться друг другу в жилетку и пожаловаться на превратности любви. Но однажды их нежная дружба начинает под воздействием сильного эротического электричества превращаться во что-то большее — захватывающее и волнующее. В то, что у каждого когда-то бывает в первый раз…и о чем потом, бывает, смешно вспоминать.



♥ Качество: DVDRip
♥ Продолжительность: 01:35:08час.

♥ Формат: AVI
♥ Видео кодек: XviD
♥ Аудио кодек: MP3
♥ Видео: 672x368 (1.85:1), 23.976 fps, XviD 65 ~958 kbps avg, 0.162 bit/pixel
♥ Аудио: 48 kHz, MPEG Layer 3, 2 ch, ~128.00 kbps avg
♥ Дата премьеры (мир): 21 января 2012
♥ Дата премьеры (РФ): 7 февраля 2013, «Кино без границ»
MediaInfo: ▼TextGeneral
Complete name : V.pervyi.raz.2012.D.DVDRip.745GB.avi
Format : AVI
Format/Info : Audio Video Interleave
File size : 745 MiB
Duration : 1h 35mn
Overall bit rate : 1 095 Kbps
Writing application : VirtualDubModRus 1.5.10.2 (build 2542/release)
Writing library : VirtualDubMod build 2542/release

Video
ID : 0
Format : MPEG-4 Visual
Format profile : Advanced [email protected]
Format settings, BVOP : 1
Format settings, QPel : No
Format settings, GMC : No warppoints
Format settings, Matrix : Custom
Codec ID : XVID
Codec ID/Hint : XviD
Duration : 1h 35mn
Bit rate : 958 Kbps
Width : 672 pixels
Height : 368 pixels
Display aspect ratio : 1.85:1
Frame rate : 23.976 fps
Color space : YUV
Chroma subsampling : 4:2:0
Bit depth : 8 bits
Scan type : Progressive
Compression mode : Lossy
Bits/(Pixel*Frame) : 0.162
Stream size : 652 MiB (87%)
Writing library : XviD 65

Audio
ID : 1
Format : MPEG Audio
Format version : Version 1
Format profile : Layer 3
Codec ID : 55
Codec ID/Hint : MP3
Duration : 1h 35mn
Bit rate mode : Constant
Bit rate : 128 Kbps
Channel(s) : 2 channels
Sampling rate : 48.0 KHz
Compression mode : Lossy
Stream size : 87.1 MiB (12%)
Alignment : Aligned on interleaves
Interleave, duration : 42 ms (1.00 video frame)
Interleave, preload duration : 504 ms
Writing library : LAME3.98r
Encoding settings : -m s -V 4 -q 2 -lowpass 17 -b 128
Релиз Группы "Virtus"

Стол заказов / Вступление в РГ / Благодарности, критика и другое



0dfba76d6ca9341f3466be2f96e6b20f8f2d609dВ Первый Раз / The First Time (Джон Кэздан, мелодрама, комедия, 2012) [DVDRip, Дубляж] В Первый Раз / The First Time (Джон Кэздан, мелодрама, комедия, 2012) [DVDRip, Дубляж] " />

Аплоадер: Админ, дата: 11-03-2013, 01:07, торрент скачан: 359 раз

Понравилась раздача? Посмотрите эти:
  • В Первый Раз / The First Time (Джон Кэздан, Мелодрама, комедия, 2012) [BDRi ...
  • В первый раз / The First Time (Джон Кэздан, мелодрама, комедия, 2012) [HDRi ...
  • В первый раз / The First Time (Джон Кэздан, мелодрама, комедия, 2012) [BDRi ...
  • В Первый Раз / The First Time (Джон Кэздан, мелодрама, комедия, 2012) [BDRi ...
  • В первый раз / The First Time (Джон Кэздан, мелодрама, комедия , 2012) [BDR ...
  • В Первый Раз / The First Time (Джон Кэздан, Мелодрама, комедия, 2012) [HDRi ...
  • Родительский беспредел / Parental Guidance (Энди Фикмен, комедия, семейный, ...
  • В первый раз / The First Time (Джон Кэздан, драма, мелодрама, комедия , 201 ...
  • Диномама 3D / Dino Time (Юн-сок Чхве, Джон Кафка, Мультфильм, комедия, прик ...
  • Любовь на кончиках пальцев / Populaire (Режис Ройнсар, Мелодрама, комедия, ...
  • Диномама 3D / Dino Time (Юн-сок Чхве, Джон Кафка, Мультфильм, комедия, прик ...
  • Скуби-Ду! Маска Синего Сокола / Scooby-Doo! Mask Of The Blue Falcon (Оливье ...
  • Эрик Викинг / Erik the Viking (Терри Джонс, фэнтези, комедия, приключения, ...
  • Рождественские каникулы / Christmas Vacation (Джеримайя С. Чечик, комедия, ...
  • Мой парень – псих / Silver Linings Playbook (Дэвид О. Расселл, Драма, мелод ...
  • Чемпионат Европы 2012 / Группа D / 1-й тур / Украина - Швеция / Спорт 1 [11 ...
  • Майский дождь (Евгений Лаврентьев, мелодрама, комедия, 2012) [DVDRip, Не тр ...
  • Холостячки / Bachelorette (Лесли Хэдланд, комедия, 2012) [HDRip, Дубляж]
  • Последняя сказка Риты (Рената Литвинова, Фентези, драма, детектив, 2012) [D ...
  • Табу / Tabu (Мигель Гомеш, Драма, мелодрама, 2012) [DVDRip, Профессиональны ...
  • Информация
    Посетители, находящиеся в группе Гости, не могут оставлять комментарии к данной публикации.