вход на сайт

Имя пользователя :
Пароль :

Восстановление пароля Регистрация
Мрачные небеса / Dark Skies (Скотт Чарльз Стюарт, ужасы, фантастика, триллер, 2013) [DVDRip-AVC, Профессиональный (полное дублирование)]
Рейтинг:
(голосов: 1)



[img]{THEME}/images/logopost.png[/img]



Мрачные небеса / Dark Skies
«Если тебя выбрали, уже не скрыться»

Год выпуска: 2013
Страна: США
Производство: Alliance Films, Blumhouse Productions
Жанр: ужасы, фантастика, триллер

Режиссёр: Скотт Чарльз Стюарт
В ролях: Кери Рассел, Джош Хэмилтон, Дакота Гойо, Кадан Рокетт, Дж.К. Симмонс, Л.Дж. Бенет, Рич Хатчмэн, Минди Крист, Энни Турман, Джейк Уошберн

Перевод: Профессиональный (полное дублирование)
Субтитры: Отсутствуют

Описание: После того как серия тревожных событий врывается в мирную жизнь семьи Барреттов, они пытаются узнать, что за страшные неведомые силы стоят за всем этим.



Релиз:
Автор рипа: Killbrain



Качество: DVDRip-AVC
Продолжительность: 01:33:01

Формат: MKV
Видео кодек: x.264
Аудио кодек: AC3
Видео: x.264 / [email protected] / 2,40:1 / 2854 kbps / 25,00 fps / 0.370 bit/pixel
Аудио: 48 kHz, AC3 Dolby Digital, 3/2 (L,C,R,l,r) + LFE ch, ~448 kbps

Премьера (мир): 21 февраля 2013
Премьера (РФ): 21 февраля 2013, «Top Film Distribution»

Media Info ▼Общее
Уникальный идентификатор : 190829329718583222868326612726339183756 (0x8F90645C8D655BCBAE9E82908161A48C)
Формат : Matroska
Версия формата : Version 4 / Version 2
Размер файла : 2,15 Гбайт
Продолжительность : 1 ч. 33 м.
Общий поток : 3302 Кбит/сек
Название фильма : Dark Skies (2013) by Killbrain
Дата кодирования : UTC 2013-03-30 16:30:46
Программа кодирования : mkvmerge v6.1.0 (Old Devil) built on Mar 2 2013 14:32:37
Библиотека кодирования : libebml v1.3.0 + libmatroska v1.4.0

Видео
Идентификатор : 1
Формат : AVC
Формат/Информация : Advanced Video Codec
Профиль формата : [email protected]
Параметр CABAC формата : Да
Параметр ReFrames формата : 12 кадров
Идентификатор кодека : V_MPEG4/ISO/AVC
Продолжительность : 1 ч. 33 м.
Битрейт : 2854 Кбит/сек
Ширина : 720 пикселей
Высота : 428 пикселей
Соотношение сторон : 2,40:1
Соотношение сторон в оригинале : 2,40:1
Режим частоты кадров : Постоянный
Частота кадров : 25,000 кадров/сек
Цветовое пространство : YUV
Субдискретизация насыщенности : 4:2:0
Битовая глубина : 8 бит
Тип развёртки : Прогрессивная
Бит/(Пиксели*Кадры) : 0.370
Размер потока : 1,81 Гбайт (84%)
Заголовок : Dark Skies (2013)
Библиотека кодирования : x264 core 128 r2216 198a7ea
Настройки программы : cabac=1 / ref=12 / deblock=1:-3:-3 / analyse=0x3:0x113 / me=umh / subme=10 / psy=1 / psy_rd=1.00:0.15 / mixed_ref=1 / me_range=16 / chroma_me=1 / trellis=2 / 8x8dct=1 / cqm=0 / deadzone=21,11 / fast_pskip=1 / chroma_qp_offset=-3 / threads=3 / lookahead_threads=1 / sliced_threads=0 / nr=0 / decimate=0 / interlaced=0 / bluray_compat=0 / constrained_intra=0 / bframes=9 / b_pyramid=2 / b_adapt=2 / b_bias=0 / direct=3 / weightb=1 / open_gop=0 / weightp=2 / keyint=240 / keyint_min=23 / scenecut=40 / intra_refresh=0 / rc_lookahead=60 / rc=2pass / mbtree=0 / bitrate=2854 / ratetol=1.0 / qcomp=0.65 / qpmin=0 / qpmax=69 / qpstep=4 / cplxblur=20.0 / qblur=0.5 / vbv_maxrate=40000 / vbv_bufsize=40000 / nal_hrd=none / ip_ratio=1.40 / pb_ratio=1.30 / aq=1:0.90
Язык : English
Default : Да
Forced : Нет

Аудио
Идентификатор : 2
Формат : AC-3
Формат/Информация : Audio Coding 3
Расширение режима : CM (complete main)
Параметр Endianness формата : Big
Идентификатор кодека : A_AC3
Продолжительность : 1 ч. 33 м.
Вид битрейта : Постоянный
Битрейт : 448 Кбит/сек
Каналы : 6 каналов
Расположение каналов : Front: L C R, Side: L R, LFE
Частота : 48,0 КГц
Битовая глубина : 16 бит
Метод сжатия : С потерями
Размер потока : 298 Мбайт (14%)
Заголовок : AC3 / 5.1 ch / 448 kbps / Русский дубляж, R5
Язык : Russian
Default : Да
Forced : Нет



Наши рипы | Набор в РГ | Стол заказов РГ | Новости РГ



944c4cdcc18153de9c9730cd0f537ac9d31987a6Мрачные небеса / Dark Skies (Скотт Чарльз Стюарт, ужасы, фантастика, триллер, 2013) [DVDRip-AVC, Профессиональный (полное дублирование)] Мрачные небеса / Dark Skies (Скотт Чарльз Стюарт, ужасы, фантастика, триллер, 2013) [DVDRip-AVC, Профессиональный (полное дублирование)] " />

Аплоадер: Админ, дата: 31-03-2013, 02:29, торрент скачан: 359 раз

Понравилась раздача? Посмотрите эти:
  • Заклятие / The Conjuring (Джеймс Ван, ужасы, триллер, 2013) [BDRip 720р, Ду ...
  • Заклятие / The Conjuring (Джеймс Ван, ужасы, триллер, 2013) [BDRip 1080p, Д ...
  • Лавлэйс / Lovelace (Роб Эпштейн, Джеффри Фридман, драма, биография, 2013) [ ...
  • Война миров Z / World War Z [Theatrical Cut] (Марк Форстер, ужасы, фантасти ...
  • Фантомы / Shutter (Масаюки Очиай, ужасы, триллер, детектив, 2008) [BDRip-AV ...
  • Мрачные небеса / Dark Skies (Скотт Чарльз Стюарт, Ужасы, фантастика, трилле ...
  • Мрачные небеса / Dark Skies (Скотт Чарльз Стюарт, Ужасы, фантастика, трилле ...
  • Мрачные небеса / Dark Skies (Скотт Чарльз Стюарт, Ужасы, фантастика, трилле ...
  • Мрачные небеса / Dark Skies (Скотт Чарльз Стюарт, Ужасы, фантастика, трилле ...
  • Мрачные небеса / Dark Skies (Скотт Чарльз Стюарт, Ужасы, фантастика, трилле ...
  • Мрачные небеса / Dark Skies (Скотт Чарльз Стюарт, Ужасы, фантастика, трилле ...
  • Мрачные небеса / Dark Skies (Скотт Чарльз Стюарт, ужасы, фантастика, трилле ...
  • Мрачные небеса / Dark Skies (Скотт Чарльз Стюарт, ужасы, фантастика, трилле ...
  • Даю год / I Give It a Year (Дэн Мазер, мелодрама, комедия, 2012) [BDRip-AVC ...
  • Мрачные небеса / Dark Skies (Скотт Чарльз Стюарт, ужасы, фантастика, трилле ...
  • Мрачные небеса / Dark Skies (Скотт Чарльз Стюарт, Ужасы, фантастика, трилле ...
  • 21 и больше / 21 & Over (Джон Лукас, Скотт Мур, Комедия, 2013) [BDRip-AVC, ...
  • 21 и больше / 21 & Over (Джон Лукас, Скотт Мур, комедия, 2013) [DVDRip-AVC, ...
  • Мрачные небеса / Dark Skies (Скотт Чарльз Стюарт, ужасы, фантастика, трилле ...
  • Мрачные небеса / Dark Skies (Скотт Чарльз Стюарт, ужасы, фантастика, трилле ...
  • Мрачные небеса / Dark Skies (Скотт Чарльз Стюарт, ужасы, фантастика, трилле ...
  • Мрачные небеса / Dark Skies (Скотт Чарльз Стюарт, ужасы, фантастика, трилле ...
  • Мрачные небеса / Dark Skies (Скотт Чарльз Стюарт, ужасы, фантастика, трилле ...
  • Чемпионат Англии 2012-2013 / 25-й тур / Обзор / Суббота / BBC Sport [2013 г ...
  • [Трейлер] Мрачные небеса / Dark Skies (Скотт Чарльз Стюарт, ужасы, фантасти ...
  • Информация
    Посетители, находящиеся в группе Гости, не могут оставлять комментарии к данной публикации.