вход на сайт

Имя пользователя :
Пароль :

Восстановление пароля Регистрация
Любовь на кончиках пальцев / Populaire (Режис Ройнсар, Мелодрама, комедия, 2012) [HDRip, Профессиональный (многоголосый, закадровый)]
Рейтинг:
(голосов: 1)



[img]{THEME}/images/logopost.png[/img]



•Любовь на кончиках пальцев / Populaire •
♥ Год выпуска: 2012
♥ Страна: Франция
♥ Производство: Les Productions du Tresor, Compagnie Cinematographique Europeenne, La, France 3 Cinema
♥ Жанр: Мелодрама, комедия

♥ Режиссёр: Режис Ройнсар
♥ В ролях: Ромен Дюрис, Дебора Франсуа, Беренис Бежо, Шон Бенсон, Мелани Бернье, Николя Бедо, Миу-Миу, Эдди Митчелл, Фредерик Пьеро, Федор Аткин

♥ Перевод: Профессиональный (многоголосый закадровый)
♥ Субтитры: Отсутствуют
♥ Описание: Роза живет в провинции со своим отцом, обручена с самым выгодным женихом их городка, и казалось бы, ей предначертана тихая спокойная жизнь домохозяйки. Однако все меняется, когда она встречает красавца Луиса: вместе им предстоит покорить весь мир.



♥ Качество: HDRip
♥ Продолжительность: 01:50:58 час.

♥ Формат: AVI
♥ Видео кодек: XviD
♥ Аудио кодек: AC3
♥ Видео: 720x304 (2.35:1), 24 fps, XviD build 50 ~1 902 kbps avg, 0.362 bit/pixel
♥ Аудио: 48 kHz, AC3 Dolby Digital, 3/2 (L,C,R,l,r) + LFE ch, ~448 kbps
♥ Дата премьеры (мир): 17 ноября 2012
♥ Дата премьеры (РФ): 31 января 2013, «Премиум Фильм»
MediaInfo: ▼
TextGeneral
Complete name : D:Ljubov.na.konchikah.palcev.2012.P.HDRip.2.18.GB.avi
Format : AVI
Format/Info : Audio Video Interleave
Format profile : OpenDML
File size : 2.18 GiB
Duration : 1h 50mn
Overall bit rate : 2 816 Kbps
Writing application : VirtualDubMod 1.5.10.2 (build 2540/release)
Writing library : VirtualDubMod build 2540/release
Video #0
ID : 0
Format : MPEG-4 Visual
Format profile : Advanced [email protected]
Format settings, BVOP : 1
Format settings, QPel : No
Format settings, GMC : No warppoints
Format settings, Matrix : Custom
Codec ID : XVID
Codec ID/Hint : XviD
Duration : 1h 50mn
Bit rate : 1 902 Kbps
Width : 720 pixels
Height : 304 pixels
Display aspect ratio : 2.35:1
Frame rate : 24.000 fps
Color space : YUV
Chroma subsampling : 4:2:0
Bit depth : 8 bits
Scan type : Progressive
Compression mode : Lossy
Bits/(Pixel*Frame) : 0.362
Stream size : 1.47 GiB (68%)
Writing library : XviD 1.2.1 (UTC 2008-12-04)
Audio #1
ID : 1
Format : AC-3
Format/Info : Audio Coding 3
Mode extension : CM (complete main)
Codec ID : 2000
Duration : 1h 50mn
Bit rate mode : Constant
Bit rate : 448 Kbps
Channel(s) : 6 channels
Channel positions : Front: L C R, Side: L R, LFE
Sampling rate : 48.0 KHz
Bit depth : 16 bits
Compression mode : Lossy
Stream size : 356 MiB (16%)
Alignment : Split accross interleaves
Interleave, duration : 42 ms (1.00 video frame)
Interleave, preload duration : 500 ms

Релиз Группы "Virtus"

Стол заказов / Вступление в РГ / Благодарности, критика и другое



627a005bca54c9cffc745037b68ae5d2e40dac58Любовь на кончиках пальцев / Populaire (Режис Ройнсар, Мелодрама, комедия, 2012) [HDRip, Профессиональный (многоголосый, закадровый)] Любовь на кончиках пальцев / Populaire (Режис Ройнсар, Мелодрама, комедия, 2012) [HDRip, Профессиональный (многоголосый, закадровый)] " />

Аплоадер: Админ, дата: 30-03-2013, 23:24, торрент скачан: 359 раз

Понравилась раздача? Посмотрите эти:
  • Погнали! / Getaway (Кортни Соломон, Боевик, Криминал, 2013) [HDRip, Професс ...
  • Верное дельце / Une pure affaire (Александр Коффре, Боевик, Комедия, Кримин ...
  • Мои герои / Mes heros (Эрик Беснард, комедия, 2012) [HDRip, Профессиональны ...
  • Любовь на кончиках пальцев / Populaire (Режис Ройнсар, Мелодрама, комедия, ...
  • Безопасность не гарантируется / Safety Not Guaranteed (Колин Треворроу, фан ...
  • Любовь на кончиках пальцев / Populaire (Режис Ройнсар, Мелодрама, комедия, ...
  • Любовь на кончиках пальцев / Populaire (Режис Ройнсар, Мелодрама, комедия, ...
  • В хлам / Smashed (Джеймс Понсольдт, Драма, комедия, 2012) [HDRip, Профессио ...
  • Любовь на кончиках пальцев / Populaire (Режис Ройнсар, Мелодрама, комедия, ...
  • Любовь на кончиках пальцев / Populaire (Режис Ройнсар, мелодрама, комедия, ...
  • Суперстар / Superstar (Ксавье Джианноли, Драма, комедия, 2012) [HDRip, Проф ...
  • Простые истины / Straight As (Джеймс Кокс, драма, комедия, 2013) [HDRip, П ...
  • Плохая актриса / Bad Actress (Роберт Ли Кинг, комедия, 2011) [DVDRip, Профе ...
  • Доля ангелов / The Angels Share (Кен Лоуч, драма, комедия, 2012) [HDRip, Пр ...
  • Супер циклон / Super Cyclone (Лиз Адамс / Liz Adams, боевик, 2012) [HDRip, ...
  • Захват / Carjacked (Джон Бонито, триллер, 2011)[BDRip, Профессиональный (мн ...
  • Tank Feat. T.I. & Kris Stephens / Compliments [2012, RnB,Hip-Hop, HDRip]
  • Супершторм в Сиэтле / Seattle Superstorm (Джейсон Бурк, фантастика, боевик ...
  • Девушки в опасности / Damsels in Distress (Уит Стиллман, драма, мелодрама, ...
  • За гранью / Beyond (Йозеф Руснак, триллер, 2012) [HDRip, Профессиональный ...
  • Информация
    Посетители, находящиеся в группе Гости, не могут оставлять комментарии к данной публикации.