вход на сайт

Имя пользователя :
Пароль :

Восстановление пароля Регистрация
Хичкок / Hitchcock (Саша Джерваси, Драма, история, биография, 2012) [BDRip-AVC, Профессиональный (полное дублирование) + Оригинал (Aнглийский) + Sub]
Рейтинг:
(голосов: 1)



[img]{THEME}/images/logopost.png[/img]



Хичкок / Hitchcock
«История о фильме, который потряс мир»


Год выпуска: 2012
Страна: США
Производство: Cold Spring Pictures, Fox Searchlight Pictures, The Montecito Picture Company
Жанр: драма, история, биография

Режиссёр: Саша Джерваси
В ролях: Майкл Стулбарг, Энтони Хопкинс, Хелен Миррен, Скарлетт Йоханссон, Тони Коллетт, Дэнни Хьюстон, Джессика Бил, Майкл Стулбарг, Майкл Уинкотт, Джеймс Д’Арси, Ричард Портноу

Перевод: Профессиональный (полное дублирование) + Оригинал (Aнглийский)
Субтитры: русские, английские softsub (SRT)

Описание: Известный режиссер отваживается на эксперимент: отойти от ставших его визитной карточкой дорогостоящих фильмов в жанре «саспенс» и снять скромную, к тому же черно-белую картину «Психо». В процессе работы будущий «мастер страха» вглядывается в темные бездны человеческой души, чтобы найти те нервные окончания, прикасаясь к которым он мог бы, как по клавишам, сыграть на эмоциях зрителя настоящую симфонию ужаса.Дата премьеры (мир): 1 ноября 2012
Дата премьеры (РФ): 21 февраля 2013, «Двадцатый Век Фокс СНГ»


Качество: BDRip-AVC | Сэмпл
Продолжительность: 01:38:20


Формат: MKV
Видео кодек: H.264
Аудио кодек: AC3
Видео: H.264, 1056x440 (2.40:1), 23,976 fps, 1353 kbps, 0.121 bit/pixel
Аудио#1: 48 kHz, AC3 Dolby Digital, 3/2 (L,C,R,l,r) + LFE ch, ~384.00 kbps avg | RUS
Аудио#2: 48 kHz, AC3 Dolby Digital, 3/2 (L,C,R,l,r) + LFE ch, ~384.00 kbps avg | ENG


MediaInfo ▼General
Format : Matroska
Format version : Version 2
File size : 1.46 GiB
Duration : 1h 38mn
Overall bit rate mode : Variable
Overall bit rate : 2 128 Kbps
Encoded date : UTC 2013-03-26 11:38:32
Writing application : mkvmerge v5.8.0 (No Sleep / Pillow) built on Sep 2 2012 15:37:04
Writing library : libebml v1.2.3 + libmatroska v1.3.0

Video
ID : 1
Format : AVC
Format/Info : Advanced Video Codec
Format profile : [email protected]
Format settings, CABAC : Yes
Format settings, ReFrames : 10 frames
Codec ID : V_MPEG4/ISO/AVC
Duration : 1h 38mn
Bit rate mode : Variable
Bit rate : 1 353 Kbps
Maximum bit rate : 40.0 Mbps
Width : 1 056 pixels
Height : 440 pixels
Display aspect ratio : 2.40:1
Frame rate : 23.976 fps
Color space : YUV
Chroma subsampling : 4:2:0
Bit depth : 8 bits
Scan type : Progressive
Bits/(Pixel*Frame) : 0.121
Stream size : 927 MiB (62%)
Writing library : x264 core 130 r2273 b3065e6
Encoding settings : cabac=1 / ref=10 / deblock=1:-2:-1 / analyse=0x3:0x113 / me=umh / subme=11 / psy=1 / psy_rd=1.00:0.03 / mixed_ref=1 / me_range=48 / chroma_me=1 / trellis=2 / 8x8dct=1 / cqm=0 / deadzone=21,11 / fast_pskip=0 / chroma_qp_offset=-3 / threads=6 / lookahead_threads=1 / sliced_threads=0 / nr=0 / decimate=1 / interlaced=0 / bluray_compat=0 / constrained_intra=0 / bframes=11 / b_pyramid=2 / b_adapt=2 / b_bias=0 / direct=3 / weightb=1 / open_gop=0 / weightp=2 / keyint=240 / keyint_min=24 / scenecut=40 / intra_refresh=0 / rc=2pass / mbtree=0 / bitrate=1353 / ratetol=1.0 / qcomp=0.70 / qpmin=0 / qpmax=69 / qpstep=4 / cplxblur=20.0 / qblur=0.5 / ip_ratio=1.40 / pb_ratio=1.20 / aq=2:0.8
Default : Yes
Forced : No

Audio #1
ID : 2
Format : AC-3
Format/Info : Audio Coding 3
Mode extension : CM (complete main)
Codec ID : A_AC3
Duration : 1h 38mn
Bit rate mode : Constant
Bit rate : 384 Kbps
Channel(s) : 6 channels
Channel positions : Front: L C R, Side: L R, LFE
Sampling rate : 48.0 KHz
Bit depth : 16 bits
Compression mode : Lossy
Stream size : 270 MiB (18%)
Title : Dub
Language : Russian
Default : Yes
Forced : No

Audio #2
ID : 3
Format : AC-3
Format/Info : Audio Coding 3
Mode extension : CM (complete main)
Codec ID : A_AC3
Duration : 1h 38mn
Bit rate mode : Constant
Bit rate : 384 Kbps
Channel(s) : 6 channels
Channel positions : Front: L C R, Side: L R, LFE
Sampling rate : 48.0 KHz
Bit depth : 16 bits
Compression mode : Lossy
Stream size : 270 MiB (18%)
Title : Original
La
0769321099367ea9f40932a6588e59c0d0f2848cХичкок / Hitchcock (Саша Джерваси, Драма, история, биография, 2012) [BDRip-AVC, Профессиональный (полное дублирование) + Оригинал (Aнглийский) + Sub] Хичкок / Hitchcock (Саша Джерваси, Драма, история, биография, 2012) [BDRip-AVC, Профессиональный (полное дублирование) + Оригинал (Aнглийский) + Sub] " />

Аплоадер: Админ, дата: 26-03-2013, 21:35, торрент скачан: 359 раз

Понравилась раздача? Посмотрите эти:
  • Турбо / Turbo (Дэвид Сорен, Мультфильм, комедия, приключения, семейный, спо ...
  • Соучастник / Collateral (Майкл Манн, Триллер, драма, криминал, 2004) [BDRip ...
  • Хичкок / Hitchcock (Саша Джерваси, Драма, история, биография, 2012) [BDRip, ...
  • Хичкок / Hitchcock (Саша Джерваси, Драма, история, биография, 2012) [BDRip- ...
  • Хичкок / Hitchcock (Саша Джерваси, Драма, история, биография, 2012) [BDRip, ...
  • Хичкок / Hitchcock (Саша Джерваси, Драма, история, биография, 2012) [BDRip, ...
  • Хичкок / Hitchcock (Саша Джерваси, драма, история, биография, 2012) [DVD9 R ...
  • Хичкок / Hitchcock (Саша Джерваси, драма, история, биография, 2012) [320x24 ...
  • Хичкок / Hitchcock (Саша Джерваси, драма, история, биография, 2012) [BDRip- ...
  • Цель Номер Один / Zero Dark Thirty (Кэтрин Бигелоу, Триллер, драма, история ...
  • Хичкок / Hitchcock (Саша Джерваси, Драма, история, биография, 2012) [BDRip ...
  • Хичкок / Hitchcock (Саша Джерваси, Драма, история, биография, 2012) [BDRip ...
  • Хичкок / Hitchcock (Саша Джерваси, драма, история, биография, 2012) [Blu-Ra ...
  • Жизнь Пи / Life Of Pi (Энг Ли, Драма, приключения, 2012) [BDRip 720p, Профе ...
  • Жизнь Пи / Life Of Pi (Энг Ли, Драма, приключения, 2012) [BDRip 1080p, Проф ...
  • Экипаж / Flight (Роберт Земекис, Драма, 2012) [BDRip-AVC, Профессиональный ...
  • Аноним / Anonymous (Роланд Эммерих, триллер, драма, 2011) [BDRip-AVC, Профе ...
  • Хранитель времени / Hugo (Мартин Скорсезе, Драма, 2011) [BDRip-AVC, Професс ...
  • Домашняя работа / The Art of Getting By (Гэвин Вьесен, драма, мелодрама, 20 ...
  • [Трейлер] Хичкок / Hitchcock (Саша Джерваси, драма, биография) [HDRip, Проф ...
  • Информация
    Посетители, находящиеся в группе Гости, не могут оставлять комментарии к данной публикации.