вход на сайт

Имя пользователя :
Пароль :

Восстановление пароля Регистрация
Врата дракона / Long men fei jia (Цуй Харк, Боевик, приключения, 2011) [BDRip-AVC, Дубляж]
Рейтинг:
(голосов: 1)



[img]{THEME}/images/logopost.png[/img]



Врата дракона / Long men fei jia
«Легенда оживает»

Год выпуска: 2011
Страна: Китай
Производство:Beijing Liangzi Group
Жанр: Боевик, приключения

Режиссёр: Цуй Харк
В ролях: Джет Ли, Чжоу Сюнь, Чэнь Кунь, Луньмэй Квай, Юйчунь Ли, Мевис Фэн, Фан Сю-Вонг, Джа Хуи Лью, Цзянькуй Сунь, Чиен Шенг...

Перевод: Дубляж
Субтитры: Отсутствуют

Описание: Согласно древней легенде каждые 60 лет сильнейшая песчаная буря смывает песок, под которым спрятан Золотой город, полный сокровищ. В ожидании бури в гостинице Врата Дракона собирается разномастная компания охотников за сокровищами Золотого города. Тут и император одной из китайских провинций и тайный министр другой провинции и две банды наемных убийц. Все они жаждут завладеть сокровищами, а ситуация усложняется тем, что кое у кого из постояльцев отеля есть личные счеты друг к другу.



Качество: BDRip-AVC | Сэмпл |
Продолжительность: 02:02:23 час.


Формат: MKV
Видео кодек: x264
Аудио кодек: AC3
Видео: 1040x432 (2.40:1), 23.976 fps, x264 ~1 312 kbps avg, 0.122 bit/pixel
Аудио: 48 kHz, AC3 Dolby Digital, 3/2 (L,C,R,l,r) + LFE ch, ~384 kbps avg - (Дубляж)

Дата премьеры (мир): 15 декабря 2011
Дата премьеры (РФ): 21 февраля 2013, «Каскад»

MediaInfo ▼Общее
Уникальный идентификатор : 172811490544297733087488152433185243454 (0x8202484DD059F2E2BDC0D592D45BC13E)
Полное имя : F:Long men fei jia.2011.BDRip-AVC.mkv
Формат : Matroska
Версия формата : Version 4 / Version 2
Размер файла : 1,45 Гбайт
Продолжительность : 2 ч. 2 м.
Общий поток : 1697 Кбит/сек
Название фильма : Летающие мечи врат дракона / Long men fei jia / The Flying Swords of Dragon Gate (2011) BDRip-AVC rip by Rulya74
Дата кодирования : UTC 2013-04-07 06:13:24
Программа кодирования : mkvmerge v6.1.0 (Old Devil) built on Mar 2 2013 14:32:37
Библиотека кодирования : libebml v1.3.0 + libmatroska v1.4.0

Видео
Идентификатор : 1
Формат : AVC
Формат/Информация : Advanced Video Codec
Профиль формата : [email protected]
Параметр CABAC формата : Да
Параметр ReFrames формата : 10 кадров
Идентификатор кодека : V_MPEG4/ISO/AVC
Продолжительность : 2 ч. 2 м.
Битрейт : 1312 Кбит/сек
Ширина : 1040 пикселей
Высота : 432 пикселя
Соотношение сторон : 2,40:1
Режим частоты кадров : Постоянный
Частота кадров : 23,976 кадра/сек
Цветовое пространство : YUV
Субдискретизация насыщенности : 4:2:0
Битовая глубина : 8 бит
Тип развёртки : Прогрессивная
Бит/(Пиксели*Кадры) : 0.122
Размер потока : 1,09 Гбайт (75%)
Библиотека кодирования : x264 core 130 r2273 b3065e6
Настройки программы : cabac=1 / ref=10 / deblock=1:-2:-1 / analyse=0x3:0x113 / me=umh / subme=10 / psy=1 / psy_rd=0.70:0.06 / mixed_ref=1 / me_range=32 / chroma_me=1 / trellis=2 / 8x8dct=1 / cqm=0 / deadzone=21,11 / fast_pskip=0 / chroma_qp_offset=-3 / threads=3 / lookahead_threads=1 / sliced_threads=0 / nr=0 / decimate=1 / interlaced=0 / bluray_compat=0 / constrained_intra=0 / bframes=7 / b_pyramid=2 / b_adapt=2 / b_bias=0 / direct=3 / weightb=1 / open_gop=0 / weightp=2 / keyint=250 / keyint_min=23 / scenecut=40 / intra_refresh=0 / rc_lookahead=40 / rc=2pass / mbtree=1 / bitrate=1312 / ratetol=1.0 / qcomp=0.60 / qpmin=0 / qpmax=69 / qpstep=4 / cplxblur=20.0 / qblur=0.5 / ip_ratio=1.66 / aq=1:1.00
Default : Да
Forced : Нет

Аудио
Идентификатор : 2
Формат : AC-3
Формат/Информация : Audio Coding 3
Расширение режима : CM (complete main)
Параметр Endianness формата : Big
Идентификатор кодека : A_AC3
Продолжительность : 2 ч. 2 м.
Вид битрейта : Постоянный
Битрейт : 384 Кбит/сек
Каналы : 6 каналов
Расположение каналов : Front: L C R, Side: L R, LFE
Частота : 48,0 КГц
Битовая глубина : 16 бит
Метод сжатия : С потерями
Задержка видео : 2 с. 0 мс.
Размер потока : 336 Мбайт (23%)
Заголовок : Дублированный
Язык : Russian
Default : Да
Forced : Нет






46d1bff99f7405946d23ed5b15e5c85a10433721Врата дракона / Long men fei jia (Цуй Харк, Боевик, приключения, 2011) [BDRip-AVC, Дубляж] Врата дракона / Long men fei jia (Цуй Харк, Боевик, приключения, 2011) [BDRip-AVC, Дубляж] " />

Аплоадер: Админ, дата: 7-04-2013, 14:02, торрент скачан: 359 раз

Понравилась раздача? Посмотрите эти:
  • Погнали! / Getaway (Кортни Соломон, боевик, криминал, 2013) [BDRip 1080p, П ...
  • Заклятие / The Conjuring (Джеймс Ван, ужасы, триллер, 2013) [BDRip 1080p, Д ...
  • Филадельфия / Philadelphia (Джонатан Демме, Драма, 1993) [BDRip-AVC, Профес ...
  • Никто не выжил / No One Lives (Рюхэй Китамура, Триллер, ужасы, 2012) [BDRip ...
  • Врата дракона / Long men fei jia (Цуй Харк, Боевик, приключения, 2011) [BDR ...
  • Таймлесс. Рубиновая книга / Rubinrot (Феликс Фуксштайнер, Фантастика, фэнте ...
  • Даю год / I Give It a Year (Дэн Мазер, мелодрама, комедия, 2012) [BDRip-AVC ...
  • 21 и больше / 21 & Over (Джон Лукас, Скотт Мур, Комедия, 2013) [BDRip-AVC, ...
  • Ангелы Чарли / Charlies Angels (МакДжи, Боевик, триллер, комедия, криминал, ...
  • Врата дракона / Long men fei jia (Цуй Харк, Боевик, приключения, 2011) [HDR ...
  • [3D] Врата дракона / Long men fei jia (Цуй Харк, Боевик, Приключения, 2011) ...
  • Врата дракона / Long men fei jia (Цуй Харк, Боевик, приключения, 2011) [HDR ...
  • Врата дракона / Long men fei jia (Цуй Харк, боевик, приключения, 2011) [320 ...
  • Врата дракона / Long men fei jia (Цуй Харк, Боевик, приключения, 2011) [HDR ...
  • Врата дракона / Long men fei jia (Цуй Харк, боевик, приключения, 2011) [BDR ...
  • Врата дракона / Long men fei jia (Цуй Харк, Боевик, приключения, 2011) [BDR ...
  • Врата дракона / Long men fei jia (Цуй Харк, Боевик, приключения, 2011) [BDR ...
  • Врата дракона / Long men fei jia (Цуй Харк, Боевик, приключения, 2011) [DVD ...
  • Врата дракона / Long men fei jia (Цуй Харк, Боевик, приключения, 2011) [BDR ...
  • [3D] Врата дракона / Long men fei jia (Цуй Харк, Боевик, приключения, 2011) ...
  • Толстяк на ринге / Here Comes the Boom (Фрэнк Корачи, Боевик, комедия, 2012 ...
  • Суррогат / The Sessions (Бен Луин, Драма, 2012) [BDRip-AVC, Профессиональны ...
  • Закон доблести / Act of Valor (Майк МакКой, Скотт Во, боевик, триллер, прик ...
  • Медальон / Stolen (Саймон Уэст, Боевик, триллер, 2012) [BDRip-AVC, Дубляж]
  • Цунами 3D / Bait (Кимбл Рендалл, ужасы, боевик, триллер, 2011) [BDRip-AVC, ...
  • Информация
    Посетители, находящиеся в группе Гости, не могут оставлять комментарии к данной публикации.