вход на сайт

Имя пользователя :
Пароль :

Восстановление пароля Регистрация
Реальные Парни / Stand Up Guys (Фишер Стивенс, драма, комедия, криминал, 2012) [BDRip, Дубляж]
Рейтинг:
(голосов: 1)



[img]{THEME}/images/logopost.png[/img]



•Реальные Парни / Stand Up Guys •
«Жгут как в последний раз! Таких уже не делают»
♥ Год выпуска: 2012
♥ Страна: США
♥ Производство: Lionsgate, Sidney Kimmel Entertainment, Lakeshore Entertainment
♥ Жанр: драма, комедия, криминал

♥ Режиссёр: Фишер Стивенс
♥ В ролях: Аль Пачино, Кристофер Уокен, Алан Аркин, Джулианна Маргулис, Марк Марголис, Люси Панч, Эддисон Тимлин, Ванесса Ферлито, Кэтрин Уинник, Билли Барр

♥ Перевод: Дубляж
♥ Субтитры: Отсутствуют
♥ Описание: История строится вокруг двух уже немолодых преступников, один из которых получил задание убить близкого друга. Столь непростая ситуация требует времени на обдумывание, и киллеры решают вместе с приятелем изрядно побуянить (включая посещение борделя, угон машин и бегство от полиции), прежде чем будет принято окончательное решение.



♥ Качество: BDRip | Исх. с Blu-Ray
♥ Продолжительность: 01:34:58 час.

♥ Формат: AVI
♥ Видео кодек: XviD
♥ Аудио кодек: AC3
♥ Видео: 720x304 (2.35:1), 23,976 fps, XviD MPEG-4 ~1 739 kbps avg, 0.331 bit/pixel
♥ Аудио: 48 kHz, AC3 Dolby Digital, 3/6 (L,C,R,l,r) + LFE ch, ~448 kbps
♥ Дата премьеры (мир): 11 октября 2012
♥ Дата премьеры (РФ): 31 января 2013, «Top Film Distribution»
MediaInfo: ▼Text
General
Complete name : C:Realnye.parni.2012.D.BDRip.avi
Format : AVI
Format/Info : Audio Video Interleave
File size : 1.46 GiB
Duration : 1h 34mn
Overall bit rate : 2 197 Kbps
Movie name : Realnye.parni.2012.D.BDRip.
Genre : Comedy | Crime
Writing application : VirtualDubMod 1.5.10.3 | www.virtualdub-fr.org || (build 2550/release)
Original source form/Name : Movie
Video #0
ID : 0
Format : MPEG-4 Visual
Format profile : Advanced [email protected]
Format settings, BVOP : 1
Format settings, QPel : No
Format settings, GMC : No warppoints
Format settings, Matrix : Custom
Codec ID : XVID
Codec ID/Hint : XviD
Duration : 1h 34mn
Bit rate : 1 739 Kbps
Width : 720 pixels
Height : 304 pixels
Display aspect ratio : 2.35:1
Frame rate : 23.976 fps
Color space : YUV
Chroma subsampling : 4:2:0
Bit depth : 8 bits
Scan type : Progressive
Compression mode : Lossy
Bits/(Pixel*Frame) : 0.331
Stream size : 1.15 GiB (79%)
Writing library : XviD 1.2.1 (UTC 2008-12-04)
Audio #1
ID : 1
Format : AC-3
Format/Info : Audio Coding 3
Mode extension : CM (complete main)
Codec ID : 2000
Duration : 1h 34mn
Bit rate mode : Constant
Bit rate : 448 Kbps
Channel(s) : 6 channels
Channel positions : Front: L C R, Side: L R, LFE
Sampling rate : 48.0 KHz
Bit depth : 16 bits
Compression mode : Lossy
Stream size : 304 MiB (20%)
Alignment : Split accross interleaves
Interleave, duration : 42 ms (1.00 video frame)
Interleave, preload duration : 500 ms

Релиз Группы "Virtus"

Стол заказов / Вступление в РГ / Благодарности, критика и другое



f2e92397c4a441d39b18b116a7c3309c389ddd46Реальные Парни / Stand Up Guys (Фишер Стивенс, драма, комедия, криминал, 2012) [BDRip, Дубляж] Реальные Парни / Stand Up Guys (Фишер Стивенс, драма, комедия, криминал, 2012) [BDRip, Дубляж] " />

Аплоадер: Админ, дата: 5-04-2013, 20:43, торрент скачан: 359 раз

Понравилась раздача? Посмотрите эти:
  • Реальные парни / Stand Up Guys (Фишер Стивенс, Драма, комедия, криминал, 20 ...
  • Мои герои / Mes heros (Эрик Беснард, комедия, 2012) [HDRip, Профессиональны ...
  • Реальные парни / Stand Up Guys (Фишер Стивенс, драма, комедия, криминал, 20 ...
  • Возвращение героя / The Last Stand (Ким Чжи-ун, Боевик, триллер, криминал, ...
  • Мужество / Wymyk (Грег Зглински, драма, 2011) [DVDRip, Любительский (одного ...
  • Поймай толстуху, если сможешь [Театральная версия] / Identity Thief [Theatr ...
  • Решала (Роман Асхаев, Драма,Криминал, 2012) [WEB-DLRip, Не требуется]
  • Реальные парни / Stand Up Guys (Фишер Стивенс, драма, комедия, криминал, 20 ...
  • Реальные парни / Stand Up Guys (Фишер Стивенс, Драма, комедия, криминал, 20 ...
  • Реальные Парни / Stand Up Guys (Фишер Стивенс, драма, комедия, криминал, 20 ...
  • Реальные парни / Stand Up Guys (Фишер Стивенс, Драма, комедия, криминал, 20 ...
  • Реальные парни / Stand Up Guys (Фишер Стивенс, драма, комедия, криминал, 20 ...
  • Реальные парни / Stand Up Guys (Фишер Стивенс, Драма, комедия, криминал, 20 ...
  • Большие Надежды / Great Expectations (Майк Ньюэлл, драма, 2012) [BDRip, Дуб ...
  • Реальные парни / Stand Up Guys (Фишер Стивенс, Драма, комедия, криминал, 20 ...
  • Реальные парни / Stand Up Guys (Фишер Стивенс, драма, комедия, криминал, 20 ...
  • В хлам / Smashed (Джеймс Понсольдт, Драма, комедия, 2012) [HDRip, Профессио ...
  • Реальные Парни / Stand Up Guys (Фишер Стивенс, Драма, комедия, криминал, 20 ...
  • Реальные Парни / Stand Up Guys (Фишер Стивенс, Драма, комедия, криминал, 20 ...
  • Реальные Парни / Stand Up Guys (Фишер Стивенс, драма, комедия, криминал, 20 ...
  • Марко Макако / Marco Macaco (Жан Рабек, мультфильм, комедия, семейный, 2012 ...
  • [Трейлер] Реальные парни / Stand Up Guys (Фишер Стивенс, драма, комедия, кр ...
  • Захват / Carjacked (Джон Бонито, триллер, 2011)[BDRip, Профессиональный (мн ...
  • Холостячки / Bachelorette (Лесли Хэдланд, комедия, 2012) [HDRip, Дубляж]
  • Влюбленные (Валерий Бебко, Комедия, 2011) [DVDRip, Оригинал]
  • Информация
    Посетители, находящиеся в группе Гости, не могут оставлять комментарии к данной публикации.