вход на сайт

Имя пользователя :
Пароль :

Восстановление пароля Регистрация
Побег с планеты Земля / Escape from Planet Earth (Каллэн Брункер, мультфильм, фантастика, комедия, приключения, семейный, 2013) [BDRip, Профессиональный (полное дублирование)]
Рейтинг:
(голосов: 1)



[img]{THEME}/images/logopost.png[/img]



• Побег с планеты Земля / Escape from Planet Earth•
«Земные секреты раскрыты чужими!»


Год выпуска: 2013
Страна: США, Канада
Производство: Blue Yonder Films, Jon Shestack Productions, Protocol Pictures, Rainmaker Entertainment
Жанр: мультфильм, фантастика, комедия, приключения, семейный

Режиссёр: Каллэн Брункер
В ролях: Брендан Фрейзер, Роб Кордри, Рики Джервэйс, Джонатан Морган Хейт, Джессика Альба, София Вергара, Пол Шеер, Джейсон Симпсон, Сара Джессика Паркер, Даг Абрахамс

Перевод: Профессиональный (полное дублирование)
Субтитры: Нет

Описание: На планете Бааб, в самом центре Вселенной, два брата делают всё возможное, чтобы защитить свою галактику. Они — полные противоположности. Если девиз Гарри — «сначала подумай, потом сделай», то отважный Скорч живет по закону «сила есть — ума не надо», что не мешает им слаженно работать. Но однажды они получают сигнал S.O.S. с опасной планеты…под названием Земля. Скорч, сломя голову, бросается на помощь, и, разумеется, влипает в неприятности. Только Гарри может вытащить его из «Зоны 51». Братья откроют множество головокружительных тайн, но смогут ли они сбежать с самой опасной планеты во Вселенной?Дата премьеры (мир): 14 февраля 2013
Дата премьеры (РФ): 28 февраля 2013, «Люксор»


Качество: BDRip |Сэмпл
Продолжительность: 01:29:15


Формат: AVI
Видео кодек: XviD
Аудио кодек: AC3
Видео: 704x304 (2.37:1), 23.976 fps, XviD 65 ~1872 kbps avg, 0.365 bit/pixel
Аудио: 48 kHz, AC3 Dolby Digital, 3/2 (L,C,R,l,r) + LFE ch, 448.00 kbps Constant |Дубляж|


MediaInfo ▼TextGeneral
Complete name : Pobeg.s.planeti.Zamlya.2013.D.BDRip.1.45GB_by_Yarmak23.avi
Format : AVI
Format/Info : Audio Video Interleave
File size : 1.45 GiB
Duration : 1h 29mn
Overall bit rate : 2 330 Kbps
Writing application : VirtualDubModRus 1.5.10.2 (build 2542/release)
Writing library : VirtualDubMod build 2542/release

Video
ID : 0
Format : MPEG-4 Visual
Format profile : Advanced [email protected]
Format settings, BVOP : 1
Format settings, QPel : No
Format settings, GMC : No warppoints
Format settings, Matrix : Custom
Codec ID : XVID
Codec ID/Hint : XviD
Duration : 1h 29mn
Bit rate : 1 872 Kbps
Width : 704 pixels
Height : 304 pixels
Display aspect ratio : 2.35:1
Frame rate : 23.976 fps
Color space : YUV
Chroma subsampling : 4:2:0
Bit depth : 8 bits
Scan type : Progressive
Compression mode : Lossy
Bits/(Pixel*Frame) : 0.365
Stream size : 1.17 GiB (80%)
Writing library : XviD 65

Audio
ID : 1
Format : AC-3
Format/Info : Audio Coding 3
Mode extension : CM (complete main)
Format settings, Endianness : Big
Codec ID : 2000
Duration : 1h 29mn
Bit rate mode : Constant
Bit rate : 448 Kbps
Channel(s) : 6 channels
Channel positions : Front: L C R, Side: L R, LFE
Sampling rate : 48.0 KHz
Bit depth : 16 bits
Compression mode : Lossy
Stream size : 286 MiB (19%)
Alignment : Split accross interleaves
Interleave, duration : 42 ms (1.00 video frame)
Interleave, preload duration : 500 ms


Релиз Группы "Virtus"

Стол заказов / Вступление в РГ / Благодарности, критика и другое


ea44653de00dddb80535b4c0dedd6ff7cb1f4a7bПобег с планеты Земля / Escape from Planet Earth (Каллэн Брункер, мультфильм, фантастика, комедия, приключения, семейный, 2013) [BDRip, Профессиональный (полное дублирование)] Побег с планеты Земля / Escape from Planet Earth (Каллэн Брункер, мультфильм, фантастика, комедия, приключения, семейный, 2013) [BDRip, Профессиональный (полное дублирование)] " />

Аплоадер: Админ, дата: 5-04-2013, 13:55, торрент скачан: 359 раз

Понравилась раздача? Посмотрите эти:
  • Космический джем / Space Jam (Джо Питка, мультфильм, фантастика, комедия, п ...
  • Поймай толстуху, если сможешь [Театральная версия] / Identity Thief [Theatr ...
  • Обливион / Oblivion (Джозеф Косински, Фантастика,Боевик,Триллер,Приключения ...
  • Побег с планеты Земля / Escape from Planet Earth (Кэллан Брукнер, Мультфиль ...
  • Побег с планеты Земля / Escape from Planet Earth (Каллэн Брункер, Мультфиль ...
  • Побег с планеты Земля / Escape from Planet Earth (Каллэн Брункер, мультфиль ...
  • Побег с планеты Земля / Escape from Planet Earth (Кэллан Брукнер, Мультфиль ...
  • Побег с планеты Земля / Escape from Planet Earth (Кэллан Брукнер, мультфиль ...
  • Побег с планеты Земля / Escape from Planet Earth (Кэллан Брукнер, мультфиль ...
  • Побег с планеты Земля / Escape from Planet Earth (Каллэн Брункер, мультфиль ...
  • [3D] Побег с планеты Земля / Escape from Planet Earth (Кэллан Брукнер, Муль ...
  • Побег с планеты Земля / Escape from Planet Earth (Каллэн Брункер, мультфиль ...
  • Побег с планеты Земля / Escape from Planet Earth (Каллэн Брункер, мультфиль ...
  • Побег с планеты Земля / Escape from Planet Earth (Каллэн Брункер, мультфиль ...
  • [3D] Побег с планеты Земля / Escape from Planet Earth (Кэллан Брукнер, Муль ...
  • Муви 43 / Movie 43 (Стивен Брилл, Питер Фаррелли, Элизабет БэнксСтивен, ком ...
  • Весенние надежды / Hope Springs (Дэвид Фрэнкел, Драма, мелодрама, комедия, ...
  • Покорители Волн / Chasing Mavericks (Майкл Эптед, Кёртис Хэнсон, Драма, спо ...
  • Планета сокровищ / Treasure Planet (Рон Клементс, Джон Маскер, Мультфильм, ...
  • [Трейлер] Побег с планеты Земля / Escape from Planet Earth (Каллэн Брункер, ...
  • Информация
    Посетители, находящиеся в группе Гости, не могут оставлять комментарии к данной публикации.