вход на сайт

Имя пользователя :
Пароль :

Восстановление пароля Регистрация
Врата дракона / Long men fei jia (Цуй Харк, Боевик, приключения, 2011) [BDRip-AVC, Дубляж, Sub]
Рейтинг:
(голосов: 1)



[img]{THEME}/images/logopost.png[/img]



Врата дракона / Long men fei jia
«Легенда оживает»

Год выпуска: 2011
Страна: Китай
Производство:Beijing Liangzi Group
Жанр: Боевик, приключения

Режиссёр: Цуй Харк
В ролях: Джет Ли, Чжоу Сюнь, Чэнь Кунь, Луньмэй Квай, Юйчунь Ли, Мевис Фэн, Фан Сю-Вонг, Джа Хуи Лью, Цзянькуй Сунь, Чиен Шенг...

Перевод: Дубляж
Субтитры: английский

Описание: Согласно древней легенде каждые 60 лет сильнейшая песчаная буря смывает песок, под которым спрятан Золотой город, полный сокровищ. В ожидании бури в гостинице Врата Дракона собирается разномастная компания охотников за сокровищами Золотого города. Тут и император одной из китайских провинций и тайный министр другой провинции и две банды наемных убийц. Все они жаждут завладеть сокровищами, а ситуация усложняется тем, что кое у кого из постояльцев отеля есть личные счеты друг к другу.



Качество: BDRip-AVC | Сэмпл |
Продолжительность: 02:02:23 час.


Формат: MKV
Видео кодек: x264
Аудио кодек: AC3
Видео: 1136x476 (2.40:1), 23.976 fps, x264 ~2 107 kbps avg, 0.163 bit/pixel
Аудио: 48 kHz, AC3 Dolby Digital, 3/2 (L,C,R,l,r) + LFE ch, ~448 kbps avg - (Дубляж)

Дата премьеры (мир): 15 декабря 2011
Дата премьеры (РФ): 21 февраля 2013, «Каскад»

MediaInfo ▼Общее
Полное имя : Vrata.drakona.2011.D.BDRip-AVC.mkv
Формат : Matroska
Версия формата : Version 4 / Version 2
Размер файла : 2,19 Гбайт
Продолжительность : 2 ч. 2 м.
Общий поток : 2557 Кбит/сек
Дата кодирования : UTC 2013-04-04 15:12:18
Программа кодирования : mkvmerge v6.1.0 (Old Devil) built on Mar 2 2013 14:32:37
Библиотека кодирования : libebml v1.3.0 + libmatroska v1.4.0

Видео
Идентификатор : 1
Формат : AVC
Формат/Информация : Advanced Video Codec
Профиль формата : [email protected]
Параметр CABAC формата : Да
Параметр ReFrames формата : 11 кадров
Идентификатор кодека : V_MPEG4/ISO/AVC
Продолжительность : 2 ч. 2 м.
Битрейт : 2107 Кбит/сек
Ширина : 1136 пикселей
Высота : 476 пикселей
Соотношение сторон : 2,40:1
Режим частоты кадров : Постоянный
Частота кадров : 23,976 кадра/сек
Цветовое пространство : YUV
Субдискретизация насыщенности : 4:2:0
Битовая глубина : 8 бит
Тип развёртки : Прогрессивная
Бит/(Пиксели*Кадры) : 0.163
Размер потока : 1,76 Гбайт (80%)
Библиотека кодирования : x264 core 119 r2106 07efeb4
Настройки программы : cabac=1 / ref=11 / deblock=1:-2:-1 / analyse=0x3:0x113 / me=umh / subme=9 / psy=1 / psy_rd=1.00:0.10 / mixed_ref=1 / me_range=32 / chroma_me=1 / trellis=2 / 8x8dct=1 / cqm=0 / deadzone=21,11 / fast_pskip=1 / chroma_qp_offset=-3 / threads=9 / sliced_threads=0 / nr=0 / decimate=1 / interlaced=0 / bluray_compat=0 / constrained_intra=0 / bframes=10 / b_pyramid=2 / b_adapt=2 / b_bias=0 / direct=3 / weightb=1 / open_gop=0 / weightp=2 / keyint=240 / keyint_min=23 / scenecut=40 / intra_refresh=0 / rc_lookahead=80 / rc=2pass / mbtree=1 / bitrate=2107 / ratetol=1.0 / qcomp=0.60 / qpmin=0 / qpmax=69 / qpstep=4 / cplxblur=20.0 / qblur=0.5 / ip_ratio=1.40 / aq=2:0.90
Язык : Chinese
Default : Да
Forced : Нет

Аудио
Идентификатор : 2
Формат : AC-3
Формат/Информация : Audio Coding 3
Расширение режима : CM (complete main)
Параметр Endianness формата : Big
Идентификатор кодека : A_AC3
Продолжительность : 2 ч. 2 м.
Вид битрейта : Постоянный
Битрейт : 448 Кбит/сек
Каналы : 6 каналов
Расположение каналов : Front: L C R, Side: L R, LFE
Частота : 48,0 КГц
Битовая глубина : 16 бит
Метод сжатия : С потерями
Размер потока : 392 Мбайт (18%)
Язык : Russian
Default : Да
Forced : Нет

Текст
Идентификатор : 3
Формат : UTF-8
Идентификатор кодека : S_TEXT/UTF8
Идентификатор кодека/Информация : UTF-8 Plain Text
Язык : Russian
Default : Нет
Forced : Нет

Меню
00:00:00.000 : :00:00:00.000
00:09:23.480 : :00:09:23.480
00:20:15.631 : :00:20:15.631
00:28:36.965 : :00:28:36.965
00:41:07.799 : :00:41:07.799
00:50:50.965 : :00:50:50.965
01:02:35.794 : :01:02:35.794
01:11:14.187 : :01:11
98371024f498bdb0590f1a26b33bd20539db2a9cВрата дракона / Long men fei jia (Цуй Харк, Боевик, приключения, 2011) [BDRip-AVC, Дубляж, Sub] Врата дракона / Long men fei jia (Цуй Харк, Боевик, приключения, 2011) [BDRip-AVC, Дубляж, Sub] " />

Аплоадер: Админ, дата: 4-04-2013, 22:30, торрент скачан: 359 раз

Понравилась раздача? Посмотрите эти:
  • Никто не выжил / No One Lives (Рюхэй Китамура, Триллер, ужасы, 2012) [BDRip ...
  • Врата дракона / Long men fei jia (Цуй Харк, Боевик, приключения, 2011) [BDR ...
  • Таймлесс. Рубиновая книга / Rubinrot (Феликс Фуксштайнер, Фантастика, фэнте ...
  • 21 и больше / 21 & Over (Джон Лукас, Скотт Мур, Комедия, 2013) [BDRip-AVC, ...
  • Ангелы Чарли / Charlies Angels (МакДжи, Боевик, триллер, комедия, криминал, ...
  • Врата дракона / Long men fei jia (Цуй Харк, Боевик, приключения, 2011) [HDR ...
  • [3D] Врата дракона / Long men fei jia (Цуй Харк, Боевик, Приключения, 2011) ...
  • Врата дракона / Long men fei jia (Цуй Харк, Боевик, приключения, 2011) [HDR ...
  • Врата дракона / Long men fei jia (Цуй Харк, боевик, приключения, 2011) [320 ...
  • Врата дракона / Long men fei jia (Цуй Харк, Боевик, приключения, 2011) [HDR ...
  • Врата дракона / Long men fei jia (Цуй Харк, боевик, приключения, 2011) [BDR ...
  • Врата дракона / Long men fei jia (Цуй Харк, Боевик, приключения, 2011) [BDR ...
  • Врата дракона / Long men fei jia (Цуй Харк, Боевик, приключения, 2011) [BDR ...
  • Врата дракона / Long men fei jia (Цуй Харк, Боевик, приключения, 2011) [DVD ...
  • [3D] Врата дракона / Long men fei jia (Цуй Харк, Боевик, приключения, 2011) ...
  • Врата дракона / Long men fei jia (Цуй Харк, Боевик, приключения, 2011) [BDR ...
  • Толстяк на ринге / Here Comes the Boom (Фрэнк Корачи, Боевик, комедия, 2012 ...
  • Переростки / The Inbetweeners (Бен Палмер, Комедия, 2011) [BDRip-AVC, Профе ...
  • Закон доблести / Act of Valor (Майк МакКой, Скотт Во, боевик, триллер, прик ...
  • Голодные игры / The Hunger Games (Гэри Росс, Фантастика, боевик, приключени ...
  • Морской бой / Battleship (Питер Берг, фантастика, боевик, триллер, приключе ...
  • Морской бой / Battleship (Питер Берг, Фантастика, боевик, триллер, приключе ...
  • Медальон / Stolen (Саймон Уэст, Боевик, триллер, 2012) [BDRip-AVC, Дубляж]
  • Цунами 3D / Bait (Кимбл Рендалл, ужасы, боевик, триллер, 2011) [BDRip-AVC, ...
  • Тэд Джонс и Затерянный город 3D / Las aventuras de Tadeo Jones (Энрике Гато ...
  • Информация
    Посетители, находящиеся в группе Гости, не могут оставлять комментарии к данной публикации.