вход на сайт

Имя пользователя :
Пароль :

Восстановление пароля Регистрация
Фортуна Вегаса / Lay the Favorite (Стивен Фрирз, Комедия, 2012) [HDRip, Дублированный]
Рейтинг:
(голосов: 1)



[img]{THEME}/images/logopost.png[/img]



Фортуна Вегаса / Lay the Favorite
------



Год выпуска: 2012
Страна: США, Великобритания
Производство: Emmett/Furla Films, Random House Films, Likely Story
Жанр: Комедия

Режиссер: Стивен Фрирз
В ролях: Ребекка Холл, Брюс Уиллис, Кэтрин Зета-Джонс, Джошуа Джексон, Фрэнк Грилло, Винс Вон, Джон Кэрролл Линч, Лаура Препон, Уэйн Пер, Джоэль Мюррей

Перевод: Дублированный
Субтитры: Отсутствуют

Описание: Девушка в 24 года переехала в Лас-Вегас, где нашла работу у добродушного толстяка Динка Хаймовица, содержащего нелегальную букмекерскую контору. Миляга Динк получил хорошее образование, но отличился в родном Нью-Йорке махинациями на ставках, из-за чего и сбежал в игорную столицу США. Игорным бизнесом Хаймовиц продолжал заниматься при помощи своего напарника букмекера Бернарда Роуза, который живет на Лонг-Айленде. Будучи математическими гениями, эти двое сколотили себе состояние на ставках и наивных клиентах, тогда как сама Бет научилась от них многим трюкам.


МедиаИнфо ▼TextОбщее
Полное имя : D:о немEl Barco (3 сезон)Новые раздачиalice-with-horseНовый пакНовая папкаКлипыфильмыНовая папкаАзатуНовая папкаПоследний самурайНовая папкаАзаткомедииFortuna.vegasa.2012.D.HDRip.avi
Формат : AVI
Формат/Информация : Audio Video Interleave
Размер файла : 1,37 Гбайт
Продолжительность : 1 ч. 33 м.
Общий поток : 2095 Кбит/сек
Программа кодирования : VirtualDubMod 1.5.10.2 (build 2540/release)
Библиотека кодирования : VirtualDubMod build 2540/release

Видео
Идентификатор : 0
Формат : MPEG-4 Visual
Профиль формата : Advanced [email protected]
Параметр BVOP формата : Нет
Параметр QPel формата : Нет
Параметр GMC формата : Без точки перехода
Параметр матрицы формата : Default (H.263)
Идентификатор кодека : XVID
Идентификатор кодека/Подсказка : XviD
Продолжительность : 1 ч. 33 м.
Битрейт : 1702 Кбит/сек
Ширина : 720 пикселей
Высота : 384 пикселя
Соотношение сторон : 1,85:1
Частота кадров : 24,000 кадра/сек
Цветовое пространство : YUV
Субдискретизация насыщенности : 4:2:0
Битовая глубина : 8 бит
Тип развёртки : Прогрессивная
Метод сжатия : С потерями
Бит/(Пиксели*Кадры) : 0.256
Размер потока : 1,11 Гбайт (81%)
Библиотека кодирования : XviD 1.2.1 (UTC 2008-12-04)

Аудио
Идентификатор : 1
Формат : AC-3
Формат/Информация : Audio Coding 3
Расширение режима : CM (complete main)
Параметр Endianness формата : Big
Идентификатор кодека : 2000
Продолжительность : 1 ч. 33 м.
Вид битрейта : Постоянный
Битрейт : 384 Кбит/сек
Каналы : 6 каналов
Расположение каналов : Front: L C R, Side: L R, LFE
Частота : 48,0 КГц
Битовая глубина : 16 бит
Метод сжатия : С потерями
Размер потока : 257 Мбайт (18%)
Выравнивание : Разделение по промежуткам
Продолжительность промежутка : 42 мс. (1,00 видеокадр)
Время предзагрузки промежутка : 500 мс.
Премьеры ▼

Премьера (мир): 21 января 2012
Премьера (РФ): 21 марта 2013
сборы в США: $20 998


Качество: HDRip
Продолжительность: 01:33:32

Формат: AVI
Видео кодек: XviD
Аудио кодек: AC3
Видео: 720x384 (1.88:1), 24 fps, XviD build 50 ~1701 kbps avg, 0.26 bit/pixel
Аудио: 48 kHz, AC3 Dolby Digital, 3/2 (L,C,R,l,r) + LFE ch, ~384 kbps

Релиз группы:





18e921c0bc15c7ae4324f7027f225578981eeea1Фортуна Вегаса / Lay the Favorite (Стивен Фрирз, Комедия, 2012) [HDRip, Дублированный] Фортуна Вегаса / Lay the Favorite (Стивен Фрирз, Комедия, 2012) [HDRip, Дублированный] " />

Аплоадер: Админ, дата: 20-04-2013, 03:17, торрент скачан: 359 раз

Понравилась раздача? Посмотрите эти:
  • Бойфренд из будущего / About Time (Ричард Кёртис, Фантастика, драма, комеди ...
  • Одноклассники 2 / Grown Ups 2 (Деннис Дуган, Комедия, 2013) [BDRip, Професс ...
  • Миллион для чайников / The Brass Teapot (Рамаа Мосли, Фэнтези, триллер, ком ...
  • Фортуна Вегаса / Lay the Favorite (Стивен Фрирз, Комедия, 2012) [BDRip-AVC, ...
  • Фортуна Вегаса / Lay the Favorite (Стивен Фрирз, Комедия, 2012) [BDRip-AVC, ...
  • Фортуна Вегаса / Lay the Favorite (Стивен Фрирз, Комедия, 2012) [BDRip, Про ...
  • Даю год / I Give It a Year (Дэн Мазер, Мелодрама, комедия, 2013) [DVDRip, Д ...
  • Я буду рядом (Павел Руминов, Драма, 2012) [DVDRip, Не требуется]
  • Фортуна Вегаса / Lay the Favorite (Стивен Фрирз, комедия, 2012) [HDRip, Про ...
  • Фортуна Вегаса / Lay the Favorite (Стивен Фрирз, комедия, 2012) [HDRip-AVC, ...
  • Двенадцать бедствий на Рождество / The 12 Disasters of Christmas (Стивен Р. ...
  • Жил-был тигр / Ek Tha Tiger (Кабир Кхан, боевик, триллер , 2012) [ HDRip, ...
  • Легенда о МорДу / The Legend of MorDu (Брайан Ларсен, Короткометражный, ска ...
  • Бог любви / God of Love (Люк Мэзени, Короткометражка, фэнтези, комедия, мел ...
  • Взлом: По ту сторону мира / .hack//Sekai no mukou ni // Фильм 1 (из 1) (20 ...
  • Идеальный Голос / Pitch Perfect (Джейсон Мур, Комедия, музыка, 2012) [HDRip ...
  • Масс Эффект: Ушедший Герой / Mass Effect: Paragon Lost // Фильм 1 (из 1) ( ...
  • Челюсти 3D / Shark Night 3D (Дэвид Р. Эллис, ужасы, триллер, 2011) [HDRip, ...
  • Нет мужчин - нет проблем / Without Men (Габриела Тальявини, Комедия, 2011) ...
  • [Трейлер] Фортуна Вегаса / Lay the Favorite (Стивен Фрирз, комедия, 2012) [ ...
  • Гениальный папа / Father of Invention (Трент Купер, Драма, комедия, 2010) [ ...
  • Глаз шторма / The Eye of the Storm (Фред Скеписи, Драма, 2011) [HDRip, Проф ...
  • [EN] Фортуна Вегаса / Lay the Favorite (Стивен Фрирз, комедия, 2012) [DVDRi ...
  • Человек из банки (Иван Кульнев, Комедия, 2012) [DVDRip, Не требуется]
  • Сдохни, Джон Такер / John Tucker Must Die (Бетти Томас, мелодрама, комедия, ...
  • Информация
    Посетители, находящиеся в группе Гости, не могут оставлять комментарии к данной публикации.