вход на сайт

Имя пользователя :
Пароль :

Восстановление пароля Регистрация
Родительский беспредел / Parental Guidance (Энди Фикмен, комедия, семейный, 2012) [HDRip, Дубляж]
Рейтинг:
(голосов: 1)



[img]{THEME}/images/logopost.png[/img]



•Родительский беспредел / Parental Guidance •
«Наши внуки - наши правила»
♥ Год выпуска: 2012
♥ Страна: США
♥ Производство: Chernin Entertainment, Walden Media
♥ Жанр: комедия, семейный

♥ Режиссёр: Энди Фикмен
♥ В ролях: Билли Кристал, Бетт Мидлер, Мариса Томей, Том Эверетт Скотт, Бэйли Мэдисон, Джошуа Раш, Рода Гриффис

♥ Перевод: Дубляж
♥ Субтитры: Отсутствуют
♥ Описание: Когда Элис оставляет своих отпрысков на попечение родителей, те рады и счастливы: наконец-то они смогут посвятить внукам больше времени. Но совсем скоро Арти и Диана понимают, что постоянные школьные занятия и жизнь по строгому расписанию — это совсем не то, что нужно детям. Чтобы вернуть своим кровинушкам детство, «старая гвардия» вынуждена прибегнуть к нестандартным методам воспитания и использовать неожиданную тактику…



♥ Релиз от:
♥ Автор рипа: Kokobaro
♥ Качество: HDRip | [Исх. BDRip 720p] [Сравнение скриншотов c этой раздачей]
♥ Продолжительность: 01:44:38

♥ Формат: AVI
♥ Видео кодек: XviD
♥ Аудио кодек: MP3
♥ Видео: 688x376 (1.85:1), 23.976 fps, XviD build 50 ~930kbps avg, 0.150 bit/pixel
♥ Аудио1: 48 kHz, MPEG Layer 3, 2 ch, ~128.00 kbps avg
♥ Дата премьеры (мир): 25 декабря 2012
♥ Дата премьеры (РФ): 17 января 2013, «Двадцатый Век Фокс СНГ»
MediaInfo: ▼Text
General
Complete name : D:Roditelskij.bespredel.2012.HDRip.by.Kokobaro.[R.G.Virtus].avi
Format : AVI
Format/Info : Audio Video Interleave
File size : 799 MiB
Duration : 1h 44mn
Overall bit rate : 1 067 Kbps
Writing application : VirtualDubMod 1.5.10.3 | www.virtualdub-fr.org || (build 2550/release)
Writing library : VirtualDubMod build 2550/release
Video #0
ID : 0
Format : MPEG-4 Visual
Format profile : Advanced [email protected]
Format settings, BVOP : 2
Format settings, QPel : No
Format settings, GMC : No warppoints
Format settings, Matrix : Default (MPEG)
Codec ID : XVID
Codec ID/Hint : XviD
Duration : 1h 44mn
Bit rate : 930 Kbps
Width : 688 pixels
Height : 376 pixels
Display aspect ratio : 1.85:1
Frame rate : 23.976 fps
Color space : YUV
Chroma subsampling : 4:2:0
Bit depth : 8 bits
Scan type : Progressive
Compression mode : Lossy
Bits/(Pixel*Frame) : 0.150
Stream size : 696 MiB (87%)
Writing library : XviD 1.2.1 (UTC 2008-12-04)
Audio #1
ID : 1
Format : MPEG Audio
Format version : Version 1
Format profile : Layer 3
Codec ID : 55
Codec ID/Hint : MP3
Duration : 1h 44mn
Bit rate mode : Constant
Bit rate : 128 Kbps
Channel(s) : 2 channels
Sampling rate : 48.0 KHz
Compression mode : Lossy
Stream size : 95.8 MiB (12%)
Alignment : Aligned on interleaves
Interleave, duration : 42 ms (1.00 video frame)
Interleave, preload duration : 504 ms
Writing library : LAME3.99r
Encoding settings : -m s -V 4 -q 2 -lowpass 17 -b 128





9ec6c3ecf5c47eb4dbb142141433e3e255b494a3Родительский беспредел / Parental Guidance (Энди Фикмен, комедия, семейный, 2012) [HDRip, Дубляж] Родительский беспредел / Parental Guidance (Энди Фикмен, комедия, семейный, 2012) [HDRip, Дубляж] " />

Аплоадер: Админ, дата: 20-04-2013, 00:15, торрент скачан: 359 раз

Понравилась раздача? Посмотрите эти:
  • Решала (Роман Асхаев, Драма,Криминал, 2012) [WEB-DLRip, Не требуется]
  • [iPhone, iPod] Родительский беспредел / Parental Guidance (Энди Фикмен, ком ...
  • Родительский беспредел / Parental Guidance (Энди Фикмен, Комедия, семейный, ...
  • Родительский беспредел / Parental Guidance (Энди Фикмен, Комедия, семейный, ...
  • Родительский беспредел / Parental Guidance (Энди Фикмен, Комедия, семейный, ...
  • Родительский беспредел / Parental Guidance (Энди Фикмен, Комедия, семейный, ...
  • Родительский беспредел / Parental Guidance (Энди Фикмен, Комедия, семейный, ...
  • Родительский беспредел / Parental Guidance (Энди Фикмен, комедия, 2012) [BD ...
  • Родительский беспредел / Parental Guidance (Энди Фикмен, комедия, семейный, ...
  • Родительский беспредел / Parental Guidance (Энди Фикмен, комедия, семейный, ...
  • Родительский беспредел / Parental Guidance (Энди Фикмен, Комедия, семейный, ...
  • Родительский беспредел / Parental Guidance (Энди Фикмен, комедия, семейный, ...
  • Родительский беспредел / Parental Guidance (Энди Фикмен, комедия, семейный, ...
  • Скуби-Ду! Маска Синего Сокола / Scooby-Doo! Mask Of The Blue Falcon (Оливье ...
  • Чемпионат Европы 2012 / Группа D / 1-й тур / Украина - Швеция / Спорт 1 [11 ...
  • Tank Feat. T.I. & Kris Stephens / Compliments [2012, RnB,Hip-Hop, HDRip]
  • [Трейлер] Родительский беспредел / Parental Guidance (Энди Фикмен,комедия ) ...
  • Холостячки / Bachelorette (Лесли Хэдланд, комедия, 2012) [HDRip, Дубляж]
  • Чемпионат Европы 2012 / Группа B / 1-й тур / Германия - Португалия / Спорт ...
  • Олимпиада 2012 / Женщины, Мужчины / Плавание / Квалификация / НТВ+ [30.07.2 ...
  • Информация
    Посетители, находящиеся в группе Гости, не могут оставлять комментарии к данной публикации.