вход на сайт

Имя пользователя :
Пароль :

Восстановление пароля Регистрация
Тихая гавань / Safe Haven (Лассе Халльстрём, триллер, драма, мелодрама, детектив, 2013) [HDRip, Дубляж]
Рейтинг:
(голосов: 1)



[img]{THEME}/images/logopost.png[/img]



•Тихая гавань / Safe Haven •
«Важно не то, от чего ты бежишь, а то, к чему ты приходишь»
♥ Год выпуска: 2013
♥ Страна: США
♥ Производство: Relativity Media, Temple Hill Entertainment, Nicholas Sparks Productions
♥ Жанр: триллер, драма, мелодрама, детектив

♥ Режиссёр: Лассе Халльстрём
♥ В ролях: Джош Дюамель, Джулианна Хаф, Коби Смолдерс, Дэвид Лайонс, Ирен Циглер, Джон Кохлер, Тим Парати, Джулия Пагано, Хуан Пьедраита, Ред Уэст

♥ Перевод: Дубляж
♥ Субтитры: Отсутствуют
♥ Описание: Кэти много лет страдала от жестокости мужа. Потеряв надежду на спасение, она совершила отчаянный побег и обрела «тихую гавань» в маленьком спокойном южном городке. Но готова ли Кэти к новым отношениям? Способна ли вновь поверить мужчине, понять его и полюбить? Даже если речь идет о таком обаятельном человеке, как молодой вдовец Алекс Уитли. Алекс и Кэти идут по тонкому льду неизвестности, — а между тем муж Кэти уже начал ее поиски.



♥ Релиз от:
♥ Автор рипа: Kokobaro
♥ Качество: HDRip | [Исх. BDRip 720p]
♥ Продолжительность: 01:55:32

♥ Формат: AVI
♥ Видео кодек: XviD
♥ Аудио кодек: MP3
♥ Видео: 640x360 (1.80:1), 23.976 fps, XviD build 50 ~827kbps avg, 0.150 bit/pixel
♥ Аудио1: 48 kHz, MPEG Layer 3, 2 ch, ~128.00 kbps avg
♥ Дата премьеры (мир): 13 февраля 2013
♥ Дата премьеры (РФ): 14 февраля 2013, «Парадиз»
MediaInfo: ▼Text
General
Complete name : D:Tihaja.gavan.2013.HDRip.by.Kokobaro.[R.G.Virtus].avi
Format : AVI
Format/Info : Audio Video Interleave
File size : 797 MiB
Duration : 1h 55mn
Overall bit rate : 964 Kbps
Writing application : VirtualDubMod 1.5.10.3 | www.virtualdub-fr.org || (build 2550/release)
Writing library : VirtualDubMod build 2550/release
Video #0
ID : 0
Format : MPEG-4 Visual
Format profile : Advanced [email protected]
Format settings, BVOP : 2
Format settings, QPel : No
Format settings, GMC : No warppoints
Format settings, Matrix : Default (MPEG)
Codec ID : XVID
Codec ID/Hint : XviD
Duration : 1h 55mn
Bit rate : 827 Kbps
Width : 640 pixels
Height : 360 pixels
Display aspect ratio : 1.80:1
Frame rate : 23.976 fps
Color space : YUV
Chroma subsampling : 4:2:0
Bit depth : 8 bits
Scan type : Progressive
Compression mode : Lossy
Bits/(Pixel*Frame) : 0.150
Stream size : 683 MiB (86%)
Writing library : XviD 1.2.1 (UTC 2008-12-04)
Audio #1
ID : 1
Format : MPEG Audio
Format version : Version 1
Format profile : Layer 3
Codec ID : 55
Codec ID/Hint : MP3
Duration : 1h 55mn
Bit rate mode : Constant
Bit rate : 128 Kbps
Channel(s) : 2 channels
Sampling rate : 48.0 KHz
Compression mode : Lossy
Stream size : 106 MiB (13%)
Alignment : Aligned on interleaves
Interleave, duration : 42 ms (1.00 video frame)
Interleave, preload duration : 504 ms
Writing library : LAME3.99r
Encoding settings : -m s -V 4 -q 2 -lowpass 17 -b 128





fb2f24c29071fd4f52c77a67a1cb809a5a58ee89Тихая гавань / Safe Haven (Лассе Халльстрём, триллер, драма, мелодрама, детектив, 2013) [HDRip, Дубляж] Тихая гавань / Safe Haven (Лассе Халльстрём, триллер, драма, мелодрама, детектив, 2013) [HDRip, Дубляж] " />

Аплоадер: Админ, дата: 18-04-2013, 23:06, торрент скачан: 359 раз

Понравилась раздача? Посмотрите эти:
  • Погнали! / Getaway (Кортни Соломон, Боевик,Криминал, 2013) [HDRip, Професси ...
  • Вирус / Flu (Ким Сон Су, Драма, 2013) [HDTVRip, Любительский (двухголосый з ...
  • Воображариум / Imaginaerum (Стобе Харью, Фэнтези, приключения, мюзикл, драм ...
  • Решала (Роман Асхаев, Драма,Криминал, 2012) [WEB-DLRip, Не требуется]
  • Чемпионат Италии 2012-13 / 36-й тур / Рома — Кьево / НТВ+ [07.05.2013, SD, ...
  • Тихая гавань / Safe Haven (Лассе Халльстрём, Триллер, драма, мелодрама, дет ...
  • Тихая гавань / Safe Haven (Лассе Халльстрём, Триллер, драма, мелодрама, дет ...
  • Тихая гавань / Safe Haven (Лассе Халльстрём, Триллер, драма, мелодрама, дет ...
  • Тихая гавань / Safe Haven (Лассе Халльстрём, триллер, драма, мелодрама, дет ...
  • Тихая гавань / Safe Haven (Лассе Халльстрём, Триллер, драма, мелодрама, дет ...
  • Тихая гавань / Safe Haven (Лассе Халльстрём, Триллер, драма, 2013) [BDRip-A ...
  • Тихая гавань / Safe Haven (Лассе Халльстрём, Триллер, драма, мелодрама, дет ...
  • Тихая гавань / Safe Haven (Лассе Халльстрём, Триллер, драма, мелодрама, дет ...
  • Тихая гавань / Safe Haven (Лассе Халльстрём, триллер, драма, мелодрама, дет ...
  • Тихая гавань / Safe Haven (Лассе Халльстрём, Триллер, драма, мелодрама, дет ...
  • Родительский беспредел / Parental Guidance (Энди Фикмен, комедия, семейный, ...
  • Тихая гавань / Safe Haven (Лассе Халльстрём, триллер, драма, мелодрама, дет ...
  • Тихая гавань / Safe Haven (Лассе Халльстрём, триллер, драма, мелодрама, дет ...
  • Скуби-Ду! Маска Синего Сокола / Scooby-Doo! Mask Of The Blue Falcon (Оливье ...
  • Чемпионат Европы 2012 / Группа D / 1-й тур / Украина - Швеция / Спорт 1 [11 ...
  • Tank Feat. T.I. & Kris Stephens / Compliments [2012, RnB,Hip-Hop, HDRip]
  • Романтики / The Romantics (Галт Нидерхоффер, Драма, мелодрама, комедия, 201 ...
  • Чемпионат Европы 2012 / Группа B / 1-й тур / Германия - Португалия / Спорт ...
  • Искажение / Skew (Сейв Челенз, ужасы, триллер, 2011) [HDRip, Профессиональн ...
  • Ничего, кроме правды / Nothing But the Truth (Род Лури, триллер, драма, 200 ...
  • Информация
    Посетители, находящиеся в группе Гости, не могут оставлять комментарии к данной публикации.