вход на сайт

Имя пользователя :
Пароль :

Восстановление пароля Регистрация
Даю год / I Give It a Year (Дэн Мазер, Мелодрама, комедия, 2013) [DVDRip, Дублированный]
Рейтинг:
(голосов: 1)



[img]{THEME}/images/logopost.png[/img]



Даю год / I Give It a Year



Год выпуска: 2013
Страна: Великобритания
Производство: StudioCanal, Translux, Working Title Films
Жанр: Мелодрама, комедия

Режиссер: Дэн Мазер
В ролях: Роуз Бирн, Рейф Сполл, Анна Фэрис, Саймон Бейкер, Минни Драйвер, Джейсон Флеминг, Стивен Мерчант, Оливия Колман, Сенем Темиз, Анна Скеллерн

Перевод: Дублированный
Субтитры: Отсутствуют

Описание: Фильм в комедийном ключе поведает о всевозможных проблемах и трудностях, с которыми приходится сталкиваться молодоженам в первый год их семейной жизни.


МедиаИнфо ▼Text
Общее
Полное имя : D:Daju.god.2013.D.DVDRip.avi
Формат : AVI
Формат/Информация : Audio Video Interleave
Размер файла : 1,46 Гбайт
Продолжительность : 1 ч. 33 м.
Общий поток : 2231 Кбит/сек
Название фильма : Daju.god.2013.D.DVDRip.IRONCLUB
Режиссёр : IRONCLUB
Жанр : Comedy | Romance
Программа кодирования : VirtualDubMod 1.5.10.3 | www.virtualdub-fr.org || (build 2550/release)
Формат оригинала/Имя : Movie
Правообладатель : http://ironclub.tv/

Видео
Идентификатор : 0
Формат : MPEG-4 Visual
Профиль формата : Advanced [email protected]
Параметр BVOP формата : 1
Параметр QPel формата : Нет
Параметр GMC формата : Без точки перехода
Параметр матрицы формата : Выборочная
Идентификатор кодека : XVID
Идентификатор кодека/Подсказка : XviD
Продолжительность : 1 ч. 33 м.
Битрейт : 1773 Кбит/сек
Ширина : 720 пикселей
Высота : 304 пикселя
Соотношение сторон : 2,35:1
Частота кадров : 25,000 кадров/сек
Цветовое пространство : YUV
Субдискретизация насыщенности : 4:2:0
Битовая глубина : 8 бит
Тип развёртки : Прогрессивная
Метод сжатия : С потерями
Бит/(Пиксели*Кадры) : 0.324
Размер потока : 1,16 Гбайт (79%)
Библиотека кодирования : XviD 1.2.1 (UTC 2008-12-04)

Аудио
Идентификатор : 1
Формат : AC-3
Формат/Информация : Audio Coding 3
Расширение режима : CM (complete main)
Параметр Endianness формата : Big
Идентификатор кодека : 2000
Продолжительность : 1 ч. 33 м.
Вид битрейта : Постоянный
Битрейт : 448 Кбит/сек
Каналы : 6 каналов
Расположение каналов : Front: L C R, Side: L R, LFE
Частота : 48,0 КГц
Битовая глубина : 16 бит
Метод сжатия : С потерями
Размер потока : 299 Мбайт (20%)
Выравнивание : Разделение по промежуткам
Продолжительность промежутка : 40 мс. (1,00 видеокадр)
Время предзагрузки промежутка : 500 мс.


Премьера (мир): 17 января 2013
Премьера (РФ): 14 марта 2013, «Каскад»
Релиз на DVD: Апрель 2013, «Новый Диск»
Релиз на Blu-Ray: Апрель 2013, «Новый Диск»

Качество: DVDRip
Продолжительность: 01:33:26

Формат: AVI
Видео кодек: XviD
Аудио кодек: AC3
Видео: 720x304 (2.37:1), 25 fps, XviD build 50 ~1773 kbps avg, 0.32 bit/pixel
Аудио: 48 kHz, AC3 Dolby Digital, 3/2 (L,C,R,l,r) + LFE ch, ~448 kbps

Релиз группы:




fa2d4fc05d6f367106da29d60ede32d82c6a5cfaДаю год / I Give It a Year (Дэн Мазер, Мелодрама, комедия, 2013) [DVDRip, Дублированный] Даю год / I Give It a Year (Дэн Мазер, Мелодрама, комедия, 2013) [DVDRip, Дублированный] " />

Аплоадер: Админ, дата: 30-04-2013, 22:34, торрент скачан: 359 раз

Понравилась раздача? Посмотрите эти:
  • Бойфренд из будущего / About Time (Ричард Кёртис, Фантастика, драма, комеди ...
  • Одноклассники 2 / Grown Ups 2 (Деннис Дуган, Комедия, 2013) [BDRip, Професс ...
  • Околофутбола (Антон Борматов, драма, криминал, 2013) [DVDRip, Не требуется] ...
  • Кровью и потом: Анаболики / Pain & Gain (Майкл Бэй, криминал, комедия, трил ...
  • Даю год / I Give It a Year (Дэн Мазер, Мелодрама, комедия, 2012) [BDRip, Ду ...
  • Даю год / I Give It a Yea (Дэн Мазер, Мелодрама, комедия, 2012) [BDRip, Дуб ...
  • Даю год / I Give It a Year (Дэн Мазер, Мелодрама, 2012) [BDRip-AVC, Дубляж ...
  • Даю год / I Give It a Year (Дэн Мазер, Мелодрама, комедия , 2012) [BDRip 10 ...
  • [iPhone, iPod] Даю год / I Give It a Year (Дэн Мазер, мелодрама, комедия, 2 ...
  • Даю год / I Give It a Year (Дэн Мазер, Мелодрама, Комедия, 2013) [HDRip, Пр ...
  • Даю год / I Give It a Year (Дэн Мазер, Мелодрама, комедия, 2012) [BDRip 720 ...
  • Даю год / I Give It a Year (Дэн Мазер, мелодрама, комедия, 2013) [HDRip, Пр ...
  • Даю год / I Give It a Year (Дэн Мазер, мелодрама, комедия, 2012) [BDRip-AVC ...
  • Даю год / I Give It a Year (Дэн Мазер, Мелодрама, комедия, 2013) [HDRip-AVC ...
  • Даю год / I Give It a Year (Дэн Мазер, Мелодрама, комедия, 2013) [DVDRip, Д ...
  • Даю год / I Give It a Year (Дэн Мазер, Мелодрама, Комедия, 2013) [DVDRip-AV ...
  • Даю год / I Give It a Year (Дэн Мазер, Мелодрама, комедия, 2013) [HDTVRip 1 ...
  • Глушь / Resurrection County (Матт Зеттел, Ужасы,триллер, 2008) [DVDRip, Про ...
  • Жил-был тигр / Ek Tha Tiger (Кабир Кхан, боевик, триллер , 2012) [ HDRip, ...
  • Путешествие на дно моря / Voyage to the Bottom of the Sea (Ирвин Аллен / I ...
  • Кажется, я люблю свою жену / I Think I Love My Wife (Крис Рок, Драма, мелод ...
  • Кошмар / Nightmare / Qing Yan (Херман Яу, ужасы, триллер, 2012) [DVDRip, Лю ...
  • Глаз шторма / The Eye of the Storm (Фред Скеписи, Драма, 2011) [HDRip, Проф ...
  • Человек из банки (Иван Кульнев, Комедия, 2012) [DVDRip, Не требуется]
  • Сдохни, Джон Такер / John Tucker Must Die (Бетти Томас, мелодрама, комедия, ...
  • Информация
    Посетители, находящиеся в группе Гости, не могут оставлять комментарии к данной публикации.