вход на сайт

Имя пользователя :
Пароль :

Восстановление пароля Регистрация
Маньяк / Maniac (Франк Халфун, Ужасы, триллер, криминал, 2012) [BDRip-AVC, Профессиональный (полное дублирование), Оригинал (Aнглийский)]
Рейтинг:
(голосов: 1)



[img]{THEME}/images/logopost.png[/img]



Маньяк / Maniac
«Охота началась!»


Год выпуска: 2012
Страна: Франция, США
Производство: Blue Underground, Canal+ [fr], Ciné , La Petite Reine, Studio 37
Жанр: Ужасы, триллер, криминал

Режиссёр: Франк Халфун
В ролях: Элайджа Вуд, Нора Арнезедер, Сэмми Ротиби, Меган Даффи, Америка Оливо, Лиэн Балабан, Джен Броберг, Брайан Амес, Сэл Ланди, Женевьев Александра

Перевод: Профессиональный (полное дублирование), Оригинал (Aнглийский)
Субтитры: Нет

Описание: Улицы Лос-Анджелеса кажутся тихими и безопасными, но это не так. Серийный убийца, снимающий скальпы со своих жертв вновь выходит на охоту. Днем, Фрэнк — тихий владелец мастерской по реставрации манекенов, а ночью — безжалостный маньяк, убивающий исключительно женщин. Но его размеренная жизнь тихони-маньяка меняется, когда в ней появляется молодая фото-художница Анна, которой нужна его помощь в проведении выставки. Чем дальше развиваются их отношения, тем сложнее становится Фрэнку сделать выбор — ещё один скальп в качестве трофея или реальная любовь. Дата премьеры (мир): 26 мая 2012
Дата премьеры (РФ): 21 марта 2013, «Наше Кино»


Качество: BDRip-AVC | Сэмпл
Продолжительность: 01:28:50

Формат: MKV
Видео кодек: H.264
Аудио кодек: AC3
Видео: H.264, 1280x536 (2,40:1), 24,000 fps, 2617 Кbps, 0.159 bit/pixel
Аудио#1: 48 kHz, AC3 Dolby Digital, 3/2 (L,C,R,l,r) + LFE ch, ~448.00 kbps avg | RUS
Аудио#2: 48 kHz, AC3 Dolby Digital, 3/2 (L,C,R,l,r) + LFE ch, ~448.00 kbps avg | ENG

MediaInfo ▼General
Unique ID : 239656084583999473052167457121607572406 (0xB44C153D39FCE5919EE0B4E45D775BB6)
Complete name : D:Manjak.2012.x264.BDRip.(AVC).fanatus.mkv
Format : Matroska
Format version : Version 2
File size : 2.18 GiB
Duration : 1h 28mn
Overall bit rate : 3 506 Kbps
Movie name : Maniac (2012) - fanatus
Encoded date : UTC 2013-04-29 19:47:11
Writing application : mkvmerge v3.4.0 (Rapunzel) сборка от May 15 2010 09:38:20
Writing library : libebml v0.8.0 + libmatroska v0.9.0

Video
ID : 1
Format : AVC
Format/Info : Advanced Video Codec
Format profile : [email protected]
Format settings, CABAC : Yes
Format settings, ReFrames : 10 frames
Codec ID : V_MPEG4/ISO/AVC
Duration : 1h 28mn
Bit rate : 2 617 Kbps
Width : 1 280 pixels
Height : 536 pixels
Display aspect ratio : 2.40:1
Frame rate : 24.000 fps
Color space : YUV
Chroma subsampling : 4:2:0
Bit depth : 8 bits
Scan type : Progressive
Bits/(Pixel*Frame) : 0.159
Stream size : 1.58 GiB (72%)
Title : Maniac (2012)
Writing library : x264 core 130 r2273 b3065e6
Encoding settings : cabac=1 / ref=10 / deblock=1:-3:-3 / analyse=0x3:0x113 / me=umh / subme=11 / psy=1 / psy_rd=1.00:0.00 / mixed_ref=1 / me_range=48 / chroma_me=1 / trellis=2 / 8x8dct=1 / cqm=0 / deadzone=21,11 / fast_pskip=0 / chroma_qp_offset=-2 / threads=16 / lookahead_threads=4 / sliced_threads=0 / nr=0 / decimate=0 / interlaced=0 / bluray_compat=0 / constrained_intra=0 / bframes=10 / b_pyramid=2 / b_adapt=2 / b_bias=0 / direct=3 / weightb=1 / open_gop=0 / weightp=2 / keyint=240 / keyint_min=24 / scenecut=40 / intra_refresh=0 / rc_lookahead=240 / rc=2pass / mbtree=0 / bitrate=2617 / ratetol=1.0 / qcomp=0.60 / qpmin=0 / qpmax=69 / qpstep=4 / cplxblur=20.0 / qblur=0.5 / vbv_maxrate=50000 / vbv_bufsize=62500 / nal_hrd=none / ip_ratio=1.40 / pb_ratio=1.30 / aq=2:0.95
Language : English
Default : Yes
Forced : No

Audio #1
ID : 2
Format : AC-3
Format/Info : Audio Coding 3
Mode extension : CM (complete main)
Format settings, Endianness : Big
Codec ID : A_AC3
Duration : 1h 28mn
Bit rate mode : Constant
Bit rate : 448 Kbps
Channel(s) : 6 channels
Channel positions : Front: L C R, Side: L R, LFE
Sampling rate : 48.0 KHz
Bit depth : 16 bits
Compression mode : Lossy
Stream size : 285 MiB (13%)
Title : Dub
Language : Russian
Default : Yes
Forced : Yes

Audio #2
ID : 3
Format : AC-3
Format/Info : Audio Coding 3
Mode extension : CM (complete main)
Fo
87fac9ba5cc7efbc9e693e4d05c46e33e9e24652Маньяк / Maniac (Франк Халфун, Ужасы, триллер, криминал, 2012) [BDRip-AVC, Профессиональный (полное дублирование), Оригинал (Aнглийский)] Маньяк / Maniac (Франк Халфун, Ужасы, триллер, криминал, 2012) [BDRip-AVC, Профессиональный (полное дублирование), Оригинал (Aнглийский)] " />

Аплоадер: Админ, дата: 30-04-2013, 12:24, торрент скачан: 359 раз

Понравилась раздача? Посмотрите эти:
  • Пастырь / Priest (Скотт Чарльз Стюарт, ужасы, фантастика, боевик, триллер, ...
  • Иллюзия обмана / Now You See Me [Theatrical Cut] (Луи Летерье / Louis Leter ...
  • Маньяк / Maniac (Франк Халфун, ужасы, триллер, 2012) [Blu-ray Disc [CAN Tra ...
  • Соучастник / Collateral (Майкл Манн, Триллер, драма, криминал, 2004) [BDRip ...
  • Палата / The Ward (Джон Карпентер, Ужасы, триллер, 2010) [BDRip-AVC, Профес ...
  • Маньяк / Maniac (Франк Халфун, ужасы, триллер, криминал, 2012) [HDRip-AVC, ...
  • Маньяк / Maniac (Франк Халфун, Ужасы, триллер, криминал, 2012) [BDRip, Дубл ...
  • Маньяк / Maniac (Франк Халфун, Ужасы, триллер, криминал, 2012) [Blu-ray, Ду ...
  • Маньяк / Maniac (Франк Халфун, Ужасы, триллер, криминал, 2012) [BDRip-AVC, ...
  • Маньяк / Maniac (Франк Халфун, ужасы, триллер, криминал, 2012) [HDRip, Проф ...
  • Маньяк / Maniac (Франк Халфун, ужасы, триллер, криминал, 2012) [HDRip, Проф ...
  • Маньяк / Maniac (Франк Халфун, Ужасы, триллер, криминал, 2012) [BDRip-AVC, ...
  • Маньяк / Maniac (Франк Халфун, ужасы, триллер, криминал, 2012) [DVDRip-AVC, ...
  • Маньяк / Maniac (Франк Халфун, ужасы, триллер, криминал, 2012) [DVDRip, Про ...
  • Маньяк / Maniac (Франк Халфун, ужасы, триллер, криминал, 2012) [DVDRip, Про ...
  • Маньяк / Maniac (Франк Халфун, ужасы, триллер, криминал, 2012) [480x272] [D ...
  • Хичкок / Hitchcock (Саша Джерваси, Драма, история, биография, 2012) [BDRip- ...
  • Цель Номер Один / Zero Dark Thirty (Кэтрин Бигелоу, Триллер, драма, история ...
  • Сайлент Хилл 2 / Silent Hill: Revelation 3D (Майкл Дж. Бассетт, ужасы, трил ...
  • Аноним / Anonymous (Роланд Эммерих, триллер, драма, 2011) [BDRip-AVC, Профе ...
  • Патруль / End of Watch (Дэвид Эйр, Триллер, драма, криминал, 2012) [BDRip-A ...
  • Коллекционер 2 / The Collection (Маркус Данстэн, ужасы, боевик, триллер , 2 ...
  • Цунами 3D / Bait (Кимбл Рендалл, Ужасы, боевик, триллер, 2011) [BDRip 720p ...
  • Патруль / End of Watch (Дэвид Эйр, Триллер, драма, криминал, 2012) [BDRip 7 ...
  • [Трейлер] Маньяк / Maniac (Франк Халфун,ужасы, триллер, криминал) [HDRip, Д ...
  • Информация
    Посетители, находящиеся в группе Гости, не могут оставлять комментарии к данной публикации.