вход на сайт

Имя пользователя :
Пароль :

Восстановление пароля Регистрация
О чём молчат девушки (Карен Оганесян, Комедия, 2013) [BDRip-AVC, Не требуется]
Рейтинг:
(голосов: 1)



[img]{THEME}/images/logopost.png[/img]



О чём молчат девушки
-


Год выпуска: 2013
Страна: Россия
Производство: Централ Партнершип
Жанр: Комедия

Режиссёр: Карен Оганесян
В ролях: Юлия Пересильд, Олеся Судзиловская, Ольга Смирнова, Таисия Вилкова, Михаил Пореченков, Ольга Тумайкина, Игорь Жижикин

Перевод: Не требуется
Субтитры: Нет

Описание: Четыре подруги сбегают из Москвы на уикенд в солнечную Испанию, чтобы на пляже, в SPA и за коктейлями на террасе расслабиться и поболтать обо всем. Но бывают обстоятельства, в которых девушки начинают говорить о том, о чем они обычно молчат…Дата премьеры (мир): 9 марта 2013
Дата премьеры (РФ): 7 марта 2013, «Централ Партнершип»


Качество: BDRip-AVC | Сэмпл
Продолжительность: 01:21:57


Формат: MKV
Видео кодек: H.264
Аудио кодек: AC3
Видео: H.264, 1104x582 (1.897), 25,000 fps, 3360 kbps, 0.209 bit/pixel
Аудио: 48 kHz, AC3 Dolby Digital, 3/2 (L,C,R,l,r) + LFE ch, ~448 kbps


MediaInfo ▼General
Format : Matroska
Format version : Version 2
File size : 2.18 GiB
Duration : 1h 21mn
Overall bit rate : 3 809 Kbps
Movie name : O chem molchat devushki (2013) - fanatus
Encoded date : UTC 2013-04-24 05:32:32
Writing application : mkvmerge v3.4.0 (Rapunzel) сборка от May 15 2010 09:38:20
Writing library : libebml v0.8.0 + libmatroska v0.9.0

Video
ID : 1
Format : AVC
Format/Info : Advanced Video Codec
Format profile : [email protected]
Format settings, CABAC : Yes
Format settings, ReFrames : 10 frames
Codec ID : V_MPEG4/ISO/AVC
Duration : 1h 21mn
Bit rate : 3 360 Kbps
Width : 1 104 pixels
Height : 582 pixels
Display aspect ratio : 1.897
Frame rate : 25.000 fps
Color space : YUV
Chroma subsampling : 4:2:0
Bit depth : 8 bits
Scan type : Progressive
Bits/(Pixel*Frame) : 0.209
Stream size : 1.88 GiB (86%)
Title : O chem molchat devushki (2013)
Writing library : x264 core 130 r2273 b3065e6
Encoding settings : cabac=1 / ref=10 / deblock=1:-2:-2 / analyse=0x3:0x113 / me=umh / subme=11 / psy=1 / psy_rd=1.00:0.05 / mixed_ref=1 / me_range=48 / chroma_me=1 / trellis=2 / 8x8dct=1 / cqm=0 / deadzone=21,11 / fast_pskip=0 / chroma_qp_offset=-3 / threads=16 / lookahead_threads=4 / sliced_threads=0 / nr=0 / decimate=0 / interlaced=0 / bluray_compat=0 / constrained_intra=0 / bframes=12 / b_pyramid=2 / b_adapt=2 / b_bias=0 / direct=3 / weightb=1 / open_gop=0 / weightp=2 / keyint=250 / keyint_min=25 / scenecut=40 / intra_refresh=0 / rc_lookahead=240 / rc=2pass / mbtree=1 / bitrate=3360 / ratetol=1.0 / qcomp=0.60 / qpmin=0 / qpmax=69 / qpstep=3 / cplxblur=20.0 / qblur=0.5 / vbv_maxrate=50000 / vbv_bufsize=62500 / nal_hrd=none / ip_ratio=1.40 / aq=1:0.90 / zones=118451,122942,q=32
Language : Russian
Default : Yes
Forced : No

Audio
ID : 2
Format : AC-3
Format/Info : Audio Coding 3
Mode extension : CM (complete main)
Format settings, Endianness : Big
Codec ID : A_AC3
Duration : 1h 21mn
Bit rate mode : Constant
Bit rate : 448 Kbps
Channel(s) : 6 channels
Channel positions : Front: L C R, Side: L R, LFE
Sampling rate : 48.0 KHz
Bit depth : 16 bits
Compression mode : Lossy
Stream size : 263 MiB (12%)
Title : Original
Language : Russian
Default : Yes
Forced : No

Menu
00:00:00.000 : en:Chapter 01
00:05:36.720 : en:Chapter 02
00:12:15.960 : en:Chapter 03
00:19:38.080 : en:Chapter 04
00:26:45.000 : en:Chapter 05
00:31:31.360 : en:Chapter 06
00:39:04.080 : en:Chapter 07
00:45:38.280 : en:Chapter 08
00:51:09.680 : en:Chapter 09
00:59:47.000 : en:Chapter 10
01:04:01.280 : en:Chapter 11
01:14:38.960 : en:Chapter 12
01:21:57.640 : en:Chapter 13

Релиз Группы "Virtus"

Стол заказов / Вступление в РГ / Благодарности, критика и другое


3733c8980b66435094806e7d898f5a69e0ab2c4fО чём молчат девушки (Карен Оганесян, Комедия, 2013) [BDRip-AVC, Не требуется] О чём молчат девушки (Карен Оганесян, Комедия, 2013) [BDRip-AVC, Не требуется] " />

Аплоадер: Админ, дата: 24-04-2013, 15:51, торрент скачан: 359 раз

Понравилась раздача? Посмотрите эти:
  • Грязь / Filth (Джон С. Бейрд, криминал, драма, комедия, 2013) [BDRip-AVC, ...
  • О чём молчат девушки (Карен Оганесян, Комедия, 2013) [BDRip, Не требуется]
  • Даю год / I Give It a Year (Дэн Мазер, Мелодрама, Комедия, 2013) [BDRip-AVC ...
  • [iPhone, iPod] О чём молчат девушки (Карен Оганесян, Комедия, 2013) [640x32 ...
  • О чём молчат девушки (Карен Оганесян, комедия, 2013) [Blu-ray [RUS] 1080p, ...
  • О чём молчат девушки (Карен Оганесян, комедия, 2013) [HDRip-AVC, Не требует ...
  • О чём молчат девушки (Карен Оганесян, комедия, 2013) [BDRip 720p, Не требуе ...
  • О чём молчат девушки (Карен Оганесян, Комедия, 2013) [BDRip-AVC, Не требует ...
  • О чём молчат девушки (Карен Оганесян, Комедия, 2013) [DVDRip, Не требуется] ...
  • О чём молчат девушки (Карен Оганесян, комедия, 2013) [DVDRip-AVC, Не требуе ...
  • О чём молчат девушки (Карен Оганесян, комедия, 2013) [DVDRip, Не требуется] ...
  • О чём молчат девушки (Карен Оганесян, Комедия, 2013) [DVD5 R5, Не требуется ...
  • О чём молчат девушки (Карен Оганесян, Комедия, 2013) [480x320] [DVDRip, Не ...
  • Жизнь прекрасна / La Vita è bella (Роберто Бениньи, Драма, мелодрама, комед ...
  • Мальчишник в Новом Орлеане / Mardi Gras: Spring Break (Фил Дорнфелд, Комеди ...
  • Схватка / The Grey (Джо Карнахан, Боевик, 2012) [BDRip 720p, Профессиональн ...
  • Запрещенная реальность (Константин Максимов, фантастика, боевик, 2009) [BDR ...
  • Выкрутасы (Леван Габриадзе, мелодрама, комедия, спорт, 2011) [ВDRip 720p, Н ...
  • Ю-571 / U-571 (Джонатан Мостоу, Боевик, 2000) [BDRip - AVC, Дубляж + Субтит ...
  • Собачье сердце (Владимир Бортко, фантастика, драма, комедия, 1988) [BDRip 1 ...
  • Информация
    Посетители, находящиеся в группе Гости, не могут оставлять комментарии к данной публикации.