вход на сайт

Имя пользователя :
Пароль :

Восстановление пароля Регистрация
Таймлесс. Рубиновая книга / Rubinrot (Феликс Фуксштайнер, Фантастика, фэнтези, приключения, 2013) [BDRip, Профессиональный (полное дублирование)]
Рейтинг:
(голосов: 1)



[img]{THEME}/images/logopost.png[/img]



Таймлесс. Рубиновая книга / Rubinrot
«Любовь будет вечной, если ты - повелитель времени»


♥ Год выпуска: 2013
♥ Страна: Германия
♥ Производство: Geißendörfer Film- und Fernsehproduktion (GFF), Lieblingsfilm, mem-film, Tele-München (TMG)
♥ Жанр: Фантастика, фэнтези, приключения

♥ Режиссёр: Феликс Фуксштайнер
♥ В ролях: Мария Эрих, Янис Нивёнер, Вероника Феррес, Уве Кокиш, Катарина Тальбах, Флориан Бартоломай, Лаура Берлин, Анна Бётхер, Сибулле Каноника, Джастин Дель Корте

♥ Перевод: Профессиональный (полное дублирование)
♥ Субтитры: Нет

♥ Описание: Живущая в Лондоне шестнадцатилетняя Гвендолин Шеферд случайно узнает, что обладает уникальным геном путешественника во времени, который унаследовала от прапрабабушки. Теперь девушка может ежедневно переноситься в прошлое, и с каждым днем загадок становится все больше. Что такое «Тайна Двенадцати»? Кто охотится на путешественников во времени в прошлом? И почему все вокруг думают, что она обладает какой-то «магией ворона»?♥ Дата премьеры (мир): 14 марта 2013
♥ Дата премьеры (РФ): 14 марта 2013, «Каравелла DDC»



♥ Качество: BDRip | Сэмпл
♥ Продолжительность: 02:01:11

♥ Формат: AVI
♥ Видео кодек: XviD
♥ Аудио кодек: AC3
♥ Видео: 720x304 (2.35:1), 24.000 fps, XviD build 65 ~1265 kbps avg, 0.241 bit/pixel
♥ Аудио: 48 kHz, AC3 Dolby Digital, 3/2 (L,C,R,l,r) + LFE ch, ~448.00 kbps avg

MediaInfo ▼Общее
Формат : AVI
Формат/Информация : Audio Video Interleave
Размер файла : 1,46 Гбайт
Продолжительность : 2 ч. 1 м.
Общий поток : 1723 Кбит/сек
Программа кодирования : VirtualDubModRus 1.5.10.2 (build 2542/release)
Библиотека кодирования : VirtualDubMod build 2542/release

Видео
Идентификатор : 0
Формат : MPEG-4 Visual
Профиль формата : Advanced [email protected]
Параметр BVOP формата : 1
Параметр QPel формата : Нет
Параметр GMC формата : Без точки перехода
Параметр матрицы формата : Выборочная
Идентификатор кодека : XVID
Идентификатор кодека/Подсказка : XviD
Продолжительность : 2 ч. 1 м.
Битрейт : 1265 Кбит/сек
Ширина : 720 пикселей
Высота : 304 пикселя
Соотношение сторон : 2,35:1
Частота кадров : 24,000 кадра/сек
Цветовое пространство : YUV
Субдискретизация насыщенности : 4:2:0
Битовая глубина : 8 бит
Тип развёртки : Прогрессивная
Метод сжатия : С потерями
Бит/(Пиксели*Кадры) : 0.241
Размер потока : 1,07 Гбайт (73%)
Библиотека кодирования : XviD 65

Аудио
Идентификатор : 1
Формат : AC-3
Формат/Информация : Audio Coding 3
Расширение режима : CM (complete main)
Параметр Endianness формата : Big
Идентификатор кодека : 2000
Продолжительность : 2 ч. 1 м.
Вид битрейта : Постоянный
Битрейт : 448 Кбит/сек
Каналы : 6 каналов
Расположение каналов : Front: L C R, Side: L R, LFE
Частота : 48,0 КГц
Битовая глубина : 16 бит
Метод сжатия : С потерями
Размер потока : 388 Мбайт (26%)
Выравнивание : Разделение по промежуткам
Продолжительность промежутка : 42 мс. (1,00 видеокадр)
Время предзагрузки промежутка : 500 мс.

Релиз Группы "Virtus"

Стол заказов / Вступление в РГ / Благодарности, критика и другое


8ac4deafce2ae62e2861650fce91dd157a48ff05Таймлесс. Рубиновая книга / Rubinrot (Феликс Фуксштайнер, Фантастика, фэнтези, приключения, 2013) [BDRip, Профессиональный (полное дублирование)] Таймлесс. Рубиновая книга / Rubinrot (Феликс Фуксштайнер, Фантастика, фэнтези, приключения, 2013) [BDRip, Профессиональный (полное дублирование)] " />

Аплоадер: Админ, дата: 21-05-2013, 06:44, торрент скачан: 359 раз

Понравилась раздача? Посмотрите эти:
  • Бойфренд из будущего / About Time (Ричард Кёртис, Фантастика, драма, комеди ...
  • Одноклассники 2 / Grown Ups 2 (Деннис Дуган, Комедия, 2013) [BDRip, Професс ...
  • Как поймать перо Жар-Птицы (Георгий Гитис, Вячеслав Плотников, мультфильм, ...
  • Призрачный патруль / R.I.P.D. (Роберт Швентке, фэнтези, боевик, комедия, кр ...
  • Кровью и потом: Анаболики / Pain & Gain (Майкл Бэй, криминал, комедия, трил ...
  • Таймлесс. Рубиновая книга / Rubinrot (Феликс Фуксштайнер, Фантастика, 2013) ...
  • Миллион для чайников / The Brass Teapot (Рамаа Мосли, Фэнтези, триллер, ком ...
  • Миллион для чайников / The Brass Teapot (Рамаа Мосли, Фэнтези, триллер, ком ...
  • Астрал на улице Арлетт / 388 Arletta Avenue (Рэндолл Коул, Триллер, 2011) [ ...
  • Таймлесс. Рубиновая книга / Rubinrot (Феликс Фуксштайнер, Фантастика, фэнте ...
  • Таймлесс. Рубиновая книга / Rubinrot (Феликс Фуксштайнер, Фантастика, фэнте ...
  • Таймлесс. Рубиновая книга / Rubinrot (Феликс Фуксштайнер, фантастика, фэнте ...
  • Таймлесс. Рубиновая книга / Rubinrot (Феликс Фуксштайнер, Фантастика, фэнте ...
  • Таймлесс. Рубиновая книга / Rubinrot (Феликс Фуксштайнер, Фантастика, фэнте ...
  • Таймлесс. Рубиновая книга / Rubinrot (Феликс Фуксштайнер, Фантастика, фэнте ...
  • Таймлесс. Рубиновая книга / Rubinrot (Феликс Фуксштайнер, фантастика, фэнте ...
  • Таймлесс. Рубиновая книга / Rubinrot (Феликс Фуксштайнер, фантастика, фэнте ...
  • Таймлесс. Рубиновая книга / Rubinrot (Феликс Фуксштайнер, Фантастика, фэнте ...
  • Таймлесс. Рубиновая книга / Rubinrot (Феликс Фуксштайнер, Фантастика, фэнте ...
  • Таймлесс. Рубиновая книга / Rubinrot (Феликс Фуксштайнер, фантастика, фэнте ...
  • Таймлесс. Рубиновая книга / Rubinrot (Феликс Фуксштайнер, Фантастика, фэнте ...
  • Мулан / Mulan (Даррел Руни, Линн Сауферлэнд, мультфильм, мюзикл, приключен ...
  • Снежная королева (Максим Свешников, Владлен Барбэ, Мультфильм, фэнтези, при ...
  • Легенда о МорДу / The Legend of MorDu (Брайан Ларсен, Короткометражный, ска ...
  • Сдохни, Джон Такер / John Tucker Must Die (Бетти Томас, мелодрама, комедия, ...
  • Информация
    Посетители, находящиеся в группе Гости, не могут оставлять комментарии к данной публикации.