вход на сайт

Имя пользователя :
Пароль :

Восстановление пароля Регистрация
21 и больше / 21 & Over (Джон Лукас, Скотт Мур, Комедия, 2013) [BDRip-AVC, Дубляж]
Рейтинг:
(голосов: 1)



[img]{THEME}/images/logopost.png[/img]



21 и больше / 21 & Over
«Наконец-то»

Год выпуска: 2013
Страна: США
Производство: Mandeville Films, Relativity Media, SkyLand Entertainment, Virgin Produced
Жанр: Комедия

Режиссёр: Джон Лукас, Скотт Мур
В ролях: Майлз Теллер, Скайлар Эстин, Джастин Чон, Сара Райт, Джонатан Кельтц, Франсуа Чау, Расселл Ходжкинсон, Дэниэл Буко, Расселл Меркадо, Джози Лорен

Перевод: Дубляж
Субтитры: Отсутствуют

Описание: Двое друзей подбивают третьего отметить его 21-ый день рождения прямо накануне важного экзамена в медицинский колледж. Никто не замечает, как одна кружка пива превращается в море выпивки, а вечеринка - в бурное и незабываемое приключение с музыкой и девчонками. И где же они окажутся утром?Качество: BDRip-AVC | Сэмпл
Продолжительность: 01:33:06 час.


Формат: MKV
Видео кодек: x264
Аудио кодек: AC3
Видео: 960x540 (16:9), 23.976 fps, x264 ~1 789 kbps avg, 0.144 bit/pixel
Аудио: 48 kHz, AC3 Dolby Digital, 3/2 (L,C,R,l,r) + LFE ch, ~448 kbps - (Дубляж)

Дата премьеры (мир): 28 февраля 2013
Дата премьеры (РФ): 7 марта 2013, «Парадиз»

MediaInfo ▼Общее
Полное имя : 21.i.bolshe.2013.D.BDRip-AVC.mkv
Формат : Matroska
Версия формата : Version 4 / Version 2
Размер файла : 1,46 Гбайт
Продолжительность : 1 ч. 33 м.
Общий поток : 2239 Кбит/сек
Дата кодирования : UTC 2013-05-16 20:56:59
Программа кодирования : mkvmerge v6.1.0 (Old Devil) built on Mar 2 2013 14:32:37
Библиотека кодирования : libebml v1.3.0 + libmatroska v1.4.0

Видео
Идентификатор : 1
Формат : AVC
Формат/Информация : Advanced Video Codec
Профиль формата : [email protected]
Параметр CABAC формата : Да
Параметр ReFrames формата : 11 кадров
Идентификатор кодека : V_MPEG4/ISO/AVC
Продолжительность : 1 ч. 33 м.
Битрейт : 1789 Кбит/сек
Ширина : 960 пикселей
Высота : 540 пикселей
Соотношение сторон : 16:9
Режим частоты кадров : Постоянный
Частота кадров : 23,976 кадра/сек
Цветовое пространство : YUV
Субдискретизация насыщенности : 4:2:0
Битовая глубина : 8 бит
Тип развёртки : Прогрессивная
Бит/(Пиксели*Кадры) : 0.144
Размер потока : 1,14 Гбайт (78%)
Библиотека кодирования : x264 core 130 r2273 b3065e6
Настройки программы : cabac=1 / ref=11 / deblock=1:-2:-1 / analyse=0x3:0x113 / me=umh / subme=9 / psy=1 / psy_rd=1.00:0.10 / mixed_ref=1 / me_range=32 / chroma_me=1 / trellis=2 / 8x8dct=1 / cqm=0 / deadzone=21,11 / fast_pskip=1 / chroma_qp_offset=-3 / threads=9 / lookahead_threads=2 / sliced_threads=0 / nr=0 / decimate=1 / interlaced=0 / bluray_compat=0 / constrained_intra=0 / bframes=10 / b_pyramid=2 / b_adapt=2 / b_bias=0 / direct=3 / weightb=1 / open_gop=0 / weightp=2 / keyint=240 / keyint_min=23 / scenecut=40 / intra_refresh=0 / rc_lookahead=80 / rc=2pass / mbtree=1 / bitrate=1789 / ratetol=1.0 / qcomp=0.60 / qpmin=0 / qpmax=69 / qpstep=4 / cplxblur=20.0 / qblur=0.5 / ip_ratio=1.40 / aq=2:0.90
Язык : English
Default : Да
Forced : Нет

Аудио
Идентификатор : 2
Формат : AC-3
Формат/Информация : Audio Coding 3
Расширение режима : CM (complete main)
Параметр Endianness формата : Big
Идентификатор кодека : A_AC3
Продолжительность : 1 ч. 33 м.
Вид битрейта : Постоянный
Битрейт : 448 Кбит/сек
Каналы : 6 каналов
Расположение каналов : Front: L C R, Side: L R, LFE
Частота : 48,0 КГц
Битовая глубина : 16 бит
Метод сжатия : С потерями
Размер потока : 298 Мбайт (20%)
Язык : Russian
Default : Да
Forced : Нет







2117e38b4dfa964a4753a1058e35f5e8d5371c4921 и больше / 21 & Over (Джон Лукас, Скотт Мур, Комедия, 2013) [BDRip-AVC, Дубляж] 21 и больше / 21 & Over (Джон Лукас, Скотт Мур, Комедия, 2013) [BDRip-AVC, Дубляж] " />

Аплоадер: Админ, дата: 17-05-2013, 04:15, торрент скачан: 359 раз

Понравилась раздача? Посмотрите эти:
  • 21 и больше / 21 & Over (Джон Лукас, Скотт Мур, Комедия, 2013) [BD-Remux 10 ...
  • 21 и больше / 21 & Over (Джон Лукас, Скотт Мур, Комедия, 2013) [BDRip, Дубл ...
  • 21 и больше / 21 & Over (Джон Лукас, Скотт Мур, Комедия, 2013) [HDRip, Дубл ...
  • Стукач / Snitch (Рик Роман Во, Триллер, драма, 2013) [BDRip-AVC, Дубляж, Ор ...
  • 21 и больше / 21 & Over (Джон Лукас, Скотт Мур, Комедия, 2013) [BDRip-AVC, ...
  • Поймай толстуху, если сможешь / Identity Thief [Theatrical Cut] (Сет Гордон ...
  • Таймлесс. Рубиновая книга / Rubinrot (Феликс Фуксштайнер, Фантастика, фэнте ...
  • [iPhone, iPod] 21 и больше / 21 & Over (Джон Лукас, комедия, 2012) [640x360 ...
  • 21 и больше / 21 & Over (Джон Лукас, Скотт Мур, Комедия, 2013) [BDRip, Дубл ...
  • 21 и больше / 21 & Over (Джон Лукас, Скотт Мур, Комедия, 2013) [BDRip, Проф ...
  • 21 и больше / 21 & Over (Джон Лукас, Скотт Мур, Комедия, 2013) [Blu-ray 108 ...
  • 21 и больше / 21 & Over (Джон Лукас, Скотт Мур, Комедия, 2013) [Blu-Ray Rem ...
  • 21 и больше / 21 & Over (Джон Лукас, Скотт Мур, комедия, 2013) [BDRip-AVC, ...
  • 21 и больше / 21 & Over (Джон Лукас, Скотт Мур, Комедия, 2013) [BDRip 720p, ...
  • 21 и больше / 21 & Over (Джон Лукас, Скотт Мур, Комедия, 2013) [BDRip 1080p ...
  • 21 и больше / 21 & Over (Джон Лукас, Скотт Мур, Комедия, 2013) [BDRip-AVC, ...
  • Тихая гавань / Safe Haven (Лассе Халльстрём, Триллер, драма, мелодрама, дет ...
  • Ангелы Чарли / Charlies Angels (МакДжи, Боевик, триллер, комедия, криминал, ...
  • 21 и больше / 21 & Over (Джон Лукас, Скотт Мур, комедия, 2013) [DVDRip, Про ...
  • 21 и больше / 21 & Over (Джон Лукас, Скотт Мур, комедия, 2013) [DVDRip, Про ...
  • 21 и больше / 21 & Over (Джон Лукас, Скотт Мур, комедия, 2013) [DVD5 R5, Ду ...
  • 21 и больше / 21 & Over (Джон Лукас, Скотт Мур, комедия, 2013) [DVDRip-AVC, ...
  • 21 и больше / 21 & Over (Джон Лукас, комедия, 2012) [320x240] [DVDRip, Дубл ...
  • Закон доблести / Act of Valor (Майк МакКой, Скотт Во, боевик, триллер, прик ...
  • [Трейлер] 21 и больше / 21 and Over (Джон Лукас, Скотт Мур, комедия) [HDRip ...
  • Информация
    Посетители, находящиеся в группе Гости, не могут оставлять комментарии к данной публикации.