вход на сайт

Имя пользователя :
Пароль :

Восстановление пароля Регистрация
Мрачные небеса / Dark Skies (Скотт Чарльз Стюарт, Ужасы, фантастика, триллер, 2013) [BDRip-AVC, Профессиональный (полное дублирование), Sub]
Рейтинг:
(голосов: 1)



[img]{THEME}/images/logopost.png[/img]



Мрачные небеса / Dark Skies
«Если тебя выбрали, уже не скрыться»

Год выпуска: 2013
Страна: США
Производство: Alliance Films
Жанр: Ужасы, фантастика, триллер

Режиссёр: Скотт Чарльз Стюарт
В ролях: Кери Рассел, Джош Хэмилтон, Дакота Гойо, Кадан Рокетт, Дж.К. Симмонс, Л.Дж. Бенет, Рич Хатчмэн, Минди Крист, Энни Турман, Джейк Уошберн

Перевод: Профессиональный (полное дублирование)
Субтитры: Английские (отключаемые)

Описание: После того как серия тревожных событий врывается в мирную жизнь семьи Барреттов, они пытаются узнать, что за страшные неведомые силы стоят за всем этим.



Качество: BDRip-AVC | Сэмпл | Сравнение скриншотов с этой раздачей
Продолжительность: 01:37:09

Формат: MKV
Видео кодек: AVC
Аудио кодек: AC3
Видео: 960x392 (2,40:1), 23.976 fps, Advanced Video Codec , ~946 kbps avg, 0.105 bit/pixel
Аудио: 48 kHz, AC3 Dolby Digital, 2 ch, ~128.00 kbps avg

Дата премьеры (мир): 21 февраля 2013
Дата премьеры (РФ): 21 февраля 2013, «Top Film Distribution»

MediaInfo ▼Общее
Уникальный идентификатор : 242950170956650385984159234091161040173 (0xB6C6803C8D28DC228C9FB846D0C9352D)
Полное имя : D:TorrentDark Skies.2013.BDRip-AVC.mkv
Формат : Matroska
Версия формата : Version 4 / Version 2
Размер файла : 747 Мбайт
Продолжительность : 1 ч. 37 м.
Общий поток : 1075 Кбит/сек
Название фильма : Мрачные небеса / Dark Skies (2013) BDRip-AVC rip by Rulya74
Дата кодирования : UTC 2013-05-10 04:16:07
Программа кодирования : mkvmerge v6.2.0 (Promised Land) built on Apr 28 2013 12:22:01
Библиотека кодирования : libebml v1.3.0 + libmatroska v1.4.0

Видео
Идентификатор : 1
Формат : AVC
Формат/Информация : Advanced Video Codec
Профиль формата : [email protected]
Параметр CABAC формата : Да
Параметр ReFrames формата : 9 кадров
Идентификатор кодека : V_MPEG4/ISO/AVC
Продолжительность : 1 ч. 37 м.
Битрейт : 946 Кбит/сек
Ширина : 960 пикселей
Высота : 392 пикселя
Соотношение сторон : 2,40:1
Режим частоты кадров : Постоянный
Частота кадров : 23,976 кадра/сек
Цветовое пространство : YUV
Субдискретизация насыщенности : 4:2:0
Битовая глубина : 8 бит
Тип развёртки : Прогрессивная
Бит/(Пиксели*Кадры) : 0.105
Размер потока : 643 Мбайт (86%)
Библиотека кодирования : x264 core 130 r2273 b3065e6
Настройки программы : cabac=1 / ref=9 / deblock=1:-1:-1 / analyse=0x1:0x111 / me=esa / subme=9 / psy=1 / psy_rd=1.30:0.15 / mixed_ref=1 / me_range=32 / chroma_me=1 / trellis=0 / 8x8dct=0 / cqm=0 / deadzone=21,11 / fast_pskip=0 / chroma_qp_offset=-2 / threads=3 / lookahead_threads=6 / sliced_threads=0 / nr=0 / decimate=0 / interlaced=0 / bluray_compat=0 / constrained_intra=0 / bframes=6 / b_pyramid=2 / b_adapt=0 / b_bias=0 / direct=0 / weightb=0 / open_gop=0 / weightp=0 / keyint=250 / keyint_min=23 / scenecut=40 / intra_refresh=0 / rc_lookahead=60 / rc=2pass / mbtree=1 / bitrate=946 / ratetol=1.0 / qcomp=0.60 / qpmin=0 / qpmax=69 / qpstep=4 / cplxblur=20.0 / qblur=0.5 / vbv_maxrate=10000 / vbv_bufsize=10000 / nal_hrd=none / ip_ratio=1.40 / aq=1:1.00
Default : Да
Forced : Нет

Аудио
Идентификатор : 2
Формат : AC-3
Формат/Информация : Audio Coding 3
Расширение режима : CM (complete main)
Параметр Endianness формата : Big
Идентификатор кодека : A_AC3
Продолжительность : 1 ч. 37 м.
Вид битрейта : Постоянный
Битрейт : 128 Кбит/сек
Каналы : 2 канала
Расположение каналов : Front: L R
Частота : 48,0 КГц
Битовая глубина : 16 бит
Метод сжатия : С потерями
Размер потока : 88,9 Мбайт (12%)
Заголовок : Дублированный
Язык : Russian
Default : Да
Forced : Нет

Текст
Идентификатор : 3
Формат : UTF-8
Идентификатор кодека : S_TEXT/UTF8
Идентификатор кодека/Информация : UTF-8 Plain Text
Язык : English
Default : Да
Forced : Нет


d3e807a0cfba10e5760adca5bfdfc0d5ad67270eМрачные небеса / Dark Skies (Скотт Чарльз Стюарт, Ужасы, фантастика, триллер, 2013) [BDRip-AVC, Профессиональный (полное дублирование), Sub] Мрачные небеса / Dark Skies (Скотт Чарльз Стюарт, Ужасы, фантастика, триллер, 2013) [BDRip-AVC, Профессиональный (полное дублирование), Sub] " />

Аплоадер: Админ, дата: 16-05-2013, 16:17, торрент скачан: 359 раз

Понравилась раздача? Посмотрите эти:
  • Война миров Z / World War Z [Theatrical Cut] (Марк Форстер, ужасы, фантасти ...
  • Залив / The Bay (Барри Левинсон, Ужасы, фантастика, триллер, 2012) [BDRip-A ...
  • Мама / Mama (Андрес Мускетти, ужасы, фэнтези, триллер, 2013) [BDRip-AVC, Пр ...
  • Мрачные небеса / Dark Skies (Скотт Чарльз Стюарт, Ужасы, фантастика, трилле ...
  • Мрачные небеса / Dark Skies (Скотт Чарльз Стюарт, Ужасы, фантастика, трилле ...
  • Мрачные небеса / Dark Skies (Скотт Чарльз Стюарт, Ужасы, фантастика, трилле ...
  • Мрачные небеса / Dark Skies (Скотт Чарльз Стюарт, Ужасы, фантастика, трилле ...
  • Мрачные небеса / Dark Skies (Скотт Чарльз Стюарт, Ужасы, фантастика, трилле ...
  • Мрачные небеса / Dark Skies (Скотт Чарльз Стюарт, Ужасы, фантастика, трилле ...
  • Мрачные небеса / Dark Skies (Скотт Чарльз Стюарт, ужасы, фантастика, трилле ...
  • Мрачные небеса / Dark Skies (Скотт Чарльз Стюарт, ужасы, фантастика, трилле ...
  • Паркер / Parker (Тейлор Хэкфорд, Боевик, триллер, криминал, 2013) [BDRip-AV ...
  • Мрачные небеса / Dark Skies (Скотт Чарльз Стюарт, ужасы, фантастика, трилле ...
  • Мрачные небеса / Dark Skies (Скотт Чарльз Стюарт, ужасы, фантастика, трилле ...
  • Мрачные небеса / Dark Skies (Скотт Чарльз Стюарт, ужасы, фантастика, трилле ...
  • Мрачные небеса / Dark Skies (Скотт Чарльз Стюарт, ужасы, фантастика, трилле ...
  • Мрачные небеса / Dark Skies (Скотт Чарльз Стюарт, ужасы, фантастика, трилле ...
  • Мрачные небеса / Dark Skies (Скотт Чарльз Стюарт, ужасы, фантастика, трилле ...
  • Мрачные небеса / Dark Skies (Скотт Чарльз Стюарт, ужасы, фантастика, трилле ...
  • [Трейлер] Мрачные небеса / Dark Skies (Скотт Чарльз Стюарт, ужасы, фантасти ...
  • Информация
    Посетители, находящиеся в группе Гости, не могут оставлять комментарии к данной публикации.