вход на сайт

Имя пользователя :
Пароль :

Восстановление пароля Регистрация
Идеальный голос / Pitch Perfect (Джейсон Мур, Мелодрама, комедия, музыка, 2012) [HDRip-AVC, Дубляж]
Рейтинг:
(голосов: 1)



[img]{THEME}/images/logopost.png[/img]



Идеальный голос / Pitch Perfect
«Стань звездой универа»


Год выпуска: 2012
Страна: США
Производство: Brownstone Productions (III), Gold Circle Films
Жанр: Мелодрама, комедия, музыка

Режиссёр: Джейсон Мур
В ролях: Анна Кендрик, Скайлар Эстин, Бен Платт, Бриттани Сноу, Анна Кэмп, Ребел Уилсон, Алексис Кнапп, Эстер Дин, Хана Мэй Ли

Перевод: Дубляж
Субтитры: Отсутствуют

Описание: Картина основывается на книге Мики Рэпкина «Пой идеально: Погоня за славной вокалиста а капелла», в которой рассказывается о студентке, внезапно обнаружившей в себе страсть к пению а капелла, то есть, без музыкального сопровождения.Качество: HDRip-AVC | Сэмпл
Продолжительность: 01:52:07 час.


Формат: MKV
Видео кодек: x264
Аудио кодек: AC3
Видео: 860x464 (1,853), 23.976 fps, x264 ~1 470 kbps avg, 0.154 bit/pixel
Аудио: 48 kHz, AC3 Dolby Digital, 3/2 (L,C,R,l,r) + LFE ch, ~384 kbps - (Дубляж)


Дата премьеры (мир): 28 сентября 2012
Дата премьеры (РФ): 9 мая 2013, «UPI»

MediaInfo ▼Общее
Уникальный идентификатор : 214977565054773303427885202818533159357 (0xA1BB2C49241DBCD3846E9F0A0903F1BD)
Полное имя : K:Pitch.PerfectIdealnyj_golos_2012_HDRip_AVC_Dub.mkv
Формат : Matroska
Размер файла : 1,45 Гбайт
Продолжительность : 1 ч. 52 м.
Общий поток : 1853 Кбит/сек
Название фильма : Pitch Perfect 2012 (Rip by S.T.A.L.K.E.R.2)
Дата кодирования : UTC 2013-05-13 06:27:14
Программа кодирования : mkvmerge v6.1.0 (Old Devil) built on Mar 2 2013 14:32:37
Библиотека кодирования : libebml v1.3.0 + libmatroska v1.4.0

Видео
Идентификатор : 1
Формат : AVC
Формат/Информация : Advanced Video Codec
Профиль формата : [email protected]
Параметр CABAC формата : Да
Параметр ReFrames формата : 12 кадры
Идентификатор кодека : V_MPEG4/ISO/AVC
Продолжительность : 1 ч. 52 м.
Битрейт : 1470 Кбит/сек
Ширина : 860 пикс.
Высота : 464 пикс.
Соотношение сторон : 1,853
Частота кадров : 23,976 кадр/сек
Цветовое пространство : YUV
Подвыборка цветности : 4:2:0
Битовая глубина : 8 бит
Тип развёртки : Прогрессивная
Бит/(Пиксели*Кадры) : 0.154
Размер потока : 1,12 Гбайт (77%)
Библиотека кодирования : x264 core 130 r2273 b3065e6
Настройки программы : cabac=1 / ref=12 / deblock=1:-3:-3 / analyse=0x3:0x133 / me=umh / subme=11 / psy=1 / psy_rd=1.00:0.05 / mixed_ref=1 / me_range=32 / chroma_me=1 / trellis=2 / 8x8dct=1 / cqm=0 / deadzone=21,11 / fast_pskip=1 / chroma_qp_offset=-3 / threads=12 / lookahead_threads=3 / sliced_threads=0 / nr=0 / decimate=0 / interlaced=0 / bluray_compat=0 / constrained_intra=0 / bframes=11 / b_pyramid=2 / b_adapt=2 / b_bias=0 / direct=1 / weightb=1 / open_gop=0 / weightp=2 / keyint=240 / keyint_min=23 / scenecut=40 / intra_refresh=0 / rc_lookahead=40 / rc=2pass / mbtree=1 / bitrate=1470 / ratetol=1.0 / qcomp=0.60 / qpmin=10 / qpmax=51 / qpstep=4 / cplxblur=20.0 / qblur=0.5 / vbv_maxrate=50000 / vbv_bufsize=50000 / nal_hrd=none / ip_ratio=1.40 / aq=1:1.00
Язык : English

Аудио
Идентификатор : 2
Формат : AC-3
Формат/Информация : Audio Coding 3
Расширение режима : CM (complete main)
Идентификатор кодека : A_AC3
Продолжительность : 1 ч. 52 м.
Вид битрейта : Постоянный
Битрейт : 384 Кбит/сек
Канал(ы) : 6 канала(ов)
Расположение каналов : Front: L C R, Side: L R, LFE
Частота : 48,0 КГц
Битовая глубина : 16 бит
Метод сжатия : С потерями
Размер потока : 308 Мбайт (21%)
Язык : Russian






760bc5af2a1c5f99ff2f98c5641c4cbd598afcafИдеальный голос / Pitch Perfect (Джейсон Мур, Мелодрама, комедия, музыка, 2012) [HDRip-AVC, Дубляж] Идеальный голос / Pitch Perfect (Джейсон Мур, Мелодрама, комедия, музыка, 2012) [HDRip-AVC, Дубляж] " />

Аплоадер: Админ, дата: 13-05-2013, 20:20, торрент скачан: 359 раз

Понравилась раздача? Посмотрите эти:
  • Идеальный голос / Pitch Perfect (Джейсон Мур, мелодрама, комедия, музыка, 2 ...
  • Даю год / I Give It a Year (Дэн Мазер, мелодрама, комедия, 2012) [BDRip-AVC ...
  • Мрачные небеса / Dark Skies (Скотт Чарльз Стюарт, ужасы, фантастика, трилле ...
  • Идеальный голос / Pitch Perfect (Джейсон Мур, мелодрама, комедия, музыка, 2 ...
  • Идеальный голос / Pitch Perfect (Джейсон Мур, Мелодрама, комедия, музыка, 2 ...
  • Идеальный голос / Pitch Perfect (Джейсон Мур, Мелодрама, комедия, музыка, 2 ...
  • Идеальный голос / Pitch Perfect (Джейсон Мур, Мелодрама, комедия, музыка, 2 ...
  • Идеальный голос / Pitch Perfect (Джейсон Мур, Мелодрама, комедия, музык, 20 ...
  • Идеальный голос / Pitch Perfect (Джейсон Мур, мелодрама, комедия, музыка, 2 ...
  • Идеальный голос / Pitch Perfect (Джейсон Мур, мелодрама, комедия, музыка, 2 ...
  • Переполох на районе / Les Kaira (Франк Гастамбиде, комедия, 2012) [HDRip-AV ...
  • 21 и больше / 21 & Over (Джон Лукас, Скотт Мур, Комедия, 2013) [BDRip-AVC, ...
  • Идеальный голос / Pitch Perfect (Джейсон Мур, мелодрама, комедия, музыка, 2 ...
  • Идеальный голос / Pitch Perfect (Джейсон Мур, мелодрама, комедия, музыка, 2 ...
  • Железный Кулак [Театральная версия] / The Man with the Iron Fists [Theatric ...
  • Страшно красив / Beastly (Даниел Барнз, фэнтези, драма, мелодрама, 2011) [H ...
  • На Дороге / On The Road (Уолтер Саллес, Драма, приключения, 2012) [HDRip-AV ...
  • Патруль / End of Watch (Дэвид Эйр, Триллер, драма, криминал, 2012) [HDRip-A ...
  • Шаг вперед 4 / Step Up Revolution (Скотт Спир, Драма, мелодрама, музыка, 20 ...
  • Помогите Стать Отцом / Not Suitable For Children (Питер Темплмен, Мелодрама ...
  • Идеальный Голос / Pitch Perfect (Джейсон Мур, Комедия, музыка, 2012) [BDRip ...
  • Идеальный Голос / Pitch Perfect (Джейсон Мур, Комедия, музыка, 2012) [BDRip ...
  • Идеальный Голос / Pitch Perfect (Джейсон Мур, Комедия, музыка, 2012) [HDRip ...
  • Идеальный Голос / Pitch Perfect (Джейсон Мур, Комедия, музыка, 2012) [HDRip ...
  • Идеальный голос / Pitch Perfect (Джейсон Мур, Комедия, музыка, 2012) [HDRip ...
  • Информация
    Посетители, находящиеся в группе Гости, не могут оставлять комментарии к данной публикации.