вход на сайт

Имя пользователя :
Пароль :

Восстановление пароля Регистрация
Тачка №19 / Vehicle 19 (Мукунда Майкл Дьюил, триллер, боевик, 2013) [HDRip-AVC, Любительский (двухголосый, закадровый), Sub [Eng]]
Рейтинг:
(голосов: 1)



[img]{THEME}/images/logopost.png[/img]



«Тачка №19 / Vehicle 19»

¤Информация о фильме¤
Год выпуска: 2013
Страна: США
Производство: Forefront Media Group, Efish Entertainment, Picture Tree
Жанр: триллер, боевик

Режиссёр: Мукунда Майкл Дьюил / Mukunda Michael Dewil
В ролях: Пол Уокер, Наима МакЛин, Ги Де Виллерс, Лэйла Хайдариан, Тшепо Масеко, Андриан Мазив, Велиль Нзуза, Мангалисо Нгема, Эрнест Кубайи, Элиз Ван Никерк

Перевод: Любительский (двухголосый, закадровый)
Озвучка: не известно
Субтитры: Sub [Eng] (вшитые, отключаемые)

Описание
¤ ¤ ¤
«Рассказ пойдет про американца, который перевозит свидетеля, чтобы тот дал показания против коррумпированных полицейских. Последние всеми силами будут пытаться помешать свидетелю доехать до здания суда (живым).»
¤ ¤ ¤




¤Тех.Данные¤
Качество: HDRip-AVC
Продолжительность: ~ 01:25:10 часа

Формат: Matroska-MKV-
Видео кодек: AVC [email protected]
Аудио кодек: Audio Coding 3
Видео: 1040x434 (2,40:1), 23.976 fps, AVC ~2008 Кbps, 0.186 bit/pixel
Аудио: 48 kHz, AC3 Dolby Digital, 3/2 (L,C,R,l,r) + LFE ch, ~448 kbps

Информация MediaInfo ▼TextФормат : Matroska
Версия формата : Version 4 / Version 2
Размер файла : 1,46 Гбайт
Продолжительность : 1 ч. 25 м.
Общий поток : 2454 Кбит/сек
Название фильма : -=POTROKS=-
Дата кодирования : UTC 2013-05-12 17:21:08
Программа кодирования : mkvmerge v5.9.0 (On The Loose) built on Dec 15 2012 16:39:58
Библиотека кодирования : libebml v1.3.0 + libmatroska v1.4.0

Видео
Идентификатор : 1
Формат : AVC
Формат/Информация : Advanced Video Codec
Профиль формата : [email protected]
Параметр CABAC формата : Да
Параметр ReFrames формата : 10 кадров
Идентификатор кодека : V_MPEG4/ISO/AVC
Продолжительность : 1 ч. 25 м.
Битрейт : 2008 Кбит/сек
Ширина : 1040 пикселей
Высота : 434 пикселя
Соотношение сторон : 2,40:1
Режим частоты кадров : Постоянный
Частота кадров : 23,976 кадра/сек
Цветовое пространство : YUV
Субдискретизация насыщенности : 4:2:0
Битовая глубина : 8 бит
Тип развёртки : Прогрессивная
Бит/(Пиксели*Кадры) : 0.186
Размер потока : 1,16 Гбайт (80%)
Заголовок : Vehicle 19
Библиотека кодирования : x264 core 125 r2208 d9d2288
Настройки программы : cabac=1 / ref=10 / deblock=1:-2:-1 / analyse=0x3:0x133 / me=umh / subme=9 / psy=1 / psy_rd=1.05:0.00 / mixed_ref=1 / me_range=48 / chroma_me=1 / trellis=2 / 8x8dct=1 / cqm=0 / deadzone=21,11 / fast_pskip=0 / chroma_qp_offset=-2 / threads=9 / lookahead_threads=1 / sliced_threads=0 / nr=0 / decimate=1 / interlaced=0 / bluray_compat=0 / constrained_intra=0 / bframes=11 / b_pyramid=2 / b_adapt=2 / b_bias=0 / direct=3 / weightb=1 / open_gop=0 / weightp=2 / keyint=240 / keyint_min=23 / scenecut=40 / intra_refresh=0 / rc_lookahead=150 / rc=2pass / mbtree=1 / bitrate=2008 / ratetol=1.0 / qcomp=0.70 / qpmin=0 / qpmax=69 / qpstep=4 / cplxblur=20.0 / qblur=0.5 / vbv_maxrate=20000 / vbv_bufsize=20000 / nal_hrd=none / ip_ratio=1.35 / aq=1:0.80
Язык : English
Default : Да
Forced : Нет

Аудио
Идентификатор : 2
Формат : AC-3
Формат/Информация : Audio Coding 3
Расширение режима : CM (complete main)
Параметр Endianness формата : Big
Идентификатор кодека : A_AC3
Продолжительность : 1 ч. 25 м.
Вид битрейта : Постоянный
Битрейт : 448 Кбит/сек
Каналы : 6 каналов
Расположение каналов : Front: L C R, Side: L R, LFE
Частота : 48,0 КГц
Битовая глубина : 16 бит
Метод сжатия : С потерями
Размер потока : 273 Мбайт (18%)
Заголовок : L2 | DD 5.1 @ 448 kbps
Язык : Russian
Default : Нет
Forced : Нет

Текст
Идентификатор : 3
Формат : UTF-8
Идентификатор кодека : S_TEXT/UTF8
Идентификатор кодека/Информация : UTF-8 Plain Text
Язык : English
Default : Нет
Forced : Нет

Дата Мировой премьеры: 7 февраля 2013
Дата Российской премьеры: 2 мая 2013, «Кинопром»

Дата выхода DVD релиза: 1 июня 2013, «CP Дистрибуция»
Дата выхода Blu-Ray релиза: 1 июня 2013, «CP Дистрибуция»



7af6c86631f7ea6256e9bd2cfd02fa403a94d1fcТачка №19 / Vehicle 19 (Мукунда Майкл Дьюил, триллер, боевик, 2013) [HDRip-AVC, Любительский (двухголосый, закадровый), Sub [Eng]] Тачка №19 / Vehicle 19 (Мукунда Майкл Дьюил, триллер, боевик, 2013) [HDRip-AVC, Любительский (двухголосый, закадровый), Sub [Eng]] " />

Аплоадер: Админ, дата: 13-05-2013, 11:33, торрент скачан: 359 раз

Понравилась раздача? Посмотрите эти:
  • Двойной агент / The Double (Майкл Брандт, боевик, триллер, драма, криминал, ...
  • Погнали! / Getaway (Кортни Соломон, боевик, криминал, 2013) [BDRip-AVC, Про ...
  • Башня / The Tower (Чи-хун Ким, драма, 2012) [BDRip-AVC, Любительский (двухг ...
  • Стукач / Snitch (Рик Роман Во, Триллер, драма, 2013) [BDRip-AVC, Дубляж, Ор ...
  • Тачка №19 / Vehicle 19 (Мукунда Майкл Дьюил, Боевик, триллер, криминал, дра ...
  • Тачка №19 / Vehicle 19 (Мукунда Майкл Дьюил, боевик, триллер, криминал, дра ...
  • Тачка №19 / Vehicle 19 (Мукунда Майкл Дьюил, боевик, триллер, криминал, дра ...
  • Тачка №19 / Vehicle 19 (Мукунда Майкл Дьюил, боевик, триллер, криминал, дра ...
  • Тачка №19 / Vehicle 19 (Мукунда Майкл Дьюил, боевик, триллер, криминал, дра ...
  • Невероятный Бёрт Уандерстоун / The Incredible Burt Wonderstone (Дон Скардин ...
  • Тачка №19 / Vehicle 19 (Мукунда Майкл Дьюил, Боевик, триллер, криминал, дра ...
  • Тачка №19 / Vehicle 19 (Мукунда Майкл Дьюил, Боевик, триллер, криминал, дра ...
  • Тачка №19 / Vehicle 19 (Мукунда Майкл Дьюил, Боевик, триллер, криминал, дра ...
  • Никто не выжил / No One Lives (Рюхэй Китамура, Триллер, ужасы, 2012) [BDRip ...
  • Тачка №19 / Vehicle 19 (Мукунда Майкл Дьюил, боевик, триллер, криминал, дра ...
  • Летучий отряд Скотланд-Ярда / The Sweeney (Ник Лав, Боевик, драма, криминал ...
  • Залив / The Bay (Барри Левинсон, Ужасы, фантастика, триллер, 2012) [BDRip-A ...
  • Порочные игры / Stoker (Пак Чхан Ук, Триллер, драма, детектив, 2013) [BDRip ...
  • Тачка №19 / Vehicle 19 (Мукунда Майкл Дьюил, триллер, боевик, 2013) [HDRip, ...
  • Тачка №19 / Vehicle 19 (Мукунда Майкл Дьюил, триллер, боевик, 2013) [HDRip- ...
  • Тачка №19 / Vehicle 19 (Мукунда Майкл Дьюил, триллер, боевик, 2013) [BDRip ...
  • Тачка №19 / Vehicle 19 (Мукунда Майкл Дьюил, триллер, боевик, 2013) [HDRip, ...
  • Тачка №19 / Vehicle 19 (Мукунда Майкл Дьюил, триллер, боевик, 2013) [HDRip- ...
  • [Трейлер] Тачка №19 / Vehicle 19 (Мукунда Майкл Дьюил, триллер) [HDRip, Про ...
  • Преследование / Слежка / Following (Кристофер Нолан, триллер, драма, кримин ...
  • Информация
    Посетители, находящиеся в группе Гости, не могут оставлять комментарии к данной публикации.