вход на сайт

Имя пользователя :
Пароль :

Восстановление пароля Регистрация
Возвращение героя / The Last Stand (Ким Чжи Ун, боевик, триллер, криминал, 2013) [BDRip-AVC, Профессиональный (полное дублирование) + Оригинал (английский)]
Рейтинг:
(голосов: 1)



[img]{THEME}/images/logopost.png[/img]



Возвращение героя / The Last Stand
«Спокойная жизнь не для него»

Год выпуска: 2013
Страна: США
Производство: Mutual Film Corporation, Paramount Pictures, Skydance Productions, TC Productions
Жанр: боевик, триллер, криминал

Режиссёр: Ким Чжи Ун
В ролях: Арнольд Шварценеггер, Форест Уитакер, Джонни Ноксвил, Родриго Санторо, Джейми Александр, Луис Гузман, Эдуардо Норьега, Петер Стормаре, Зэк Гилфорд, Генезис Родригез

Перевод: Профессиональный (полное дублирование) + Оригинал (английский)
Субтитры: русские, английские

Описание: Самая опасная и жестокая банда наркоторговцев сбегает из-под конвоя ФБР. Прихватив заложника, они мчатся к мексиканской границе на бронированной, оснащенной первоклассным вооружением машине. У них на пути стоит лишь тихий городок, за порядком в котором следит шериф Оуенс. Когда-то он был одним из лучших полицейских Лос-Анджелеса, теперь он вернулся.



Качество: BDRip-AVC => Сэмпл | исх. Возвращение героя / The Last Stand (2013) 1080p BD-Remux
Продолжительность: 01:47:03 час.

Формат: MKV
Видео кодек: H.264
Аудио кодек:AC3
Видео: 1056x440 (2,40:1), 23,976 fps, H.264 ~2 015 kbps avg, 0.181 bit/pixel
Аудио 1: 48 kHz, AC3, 3/2 (L,C,R,l,r) + LFE ch, ~448.00 kbps avg | Профессиональный (полное дублирование)
Аудио 2: 48 kHz, AC3, 3/2 (L,C,R,l,r) + LFE ch, ~448.00 kbps avg | Оригинал (английский)

Премьера (мир) - 12 января 2013
Премьера (РФ) - 21 февраля 2013, «UPI», «Премиум Фильм»

MediaInfo ▼Общее
Уникальный идентификатор : 174723964108545925960540693447249947133 (0x83729C87D8F83DB782E9734917D6E9FD)
Полное имя : Vozvraweniye.Geroya.US.2013.D.BDRip.x264.potroks.mkv
Формат : Matroska
Версия формата : Version 4 / Version 2
Размер файла : 2,18 Гбайт
Продолжительность : 1 ч. 47 м.
Общий поток : 2913 Кбит/сек
Название фильма : -=POTROKS=-
Дата кодирования : UTC 2013-05-09 23:01:31
Программа кодирования : mkvmerge v5.9.0 (On The Loose) built on Dec 15 2012 16:39:58
Библиотека кодирования : libebml v1.3.0 + libmatroska v1.4.0

Видео
Идентификатор : 1
Формат : AVC
Формат/Информация : Advanced Video Codec
Профиль формата : [email protected]
Параметр CABAC формата : Да
Параметр ReFrames формата : 9 кадров
Идентификатор кодека : V_MPEG4/ISO/AVC
Продолжительность : 1 ч. 47 м.
Битрейт : 2015 Кбит/сек
Ширина : 1056 пикселей
Высота : 440 пикселей
Соотношение сторон : 2,40:1
Режим частоты кадров : Постоянный
Частота кадров : 23,976 кадра/сек
Цветовое пространство : YUV
Субдискретизация насыщенности : 4:2:0
Битовая глубина : 8 бит
Тип развёртки : Прогрессивная
Бит/(Пиксели*Кадры) : 0.181
Размер потока : 1,47 Гбайт (67%)
Заголовок : The Last Stand
Библиотека кодирования : x264 core 128 r2216M 198a7ea
Настройки программы : cabac=1 / ref=10 / deblock=1:-2:-2 / analyse=0x3:0x133 / me=umh / subme=11 / psy=1 / psy_rd=1.08:0.03 / mixed_ref=1 / me_range=32 / chroma_me=1 / trellis=2 / 8x8dct=1 / cqm=0 / deadzone=21,11 / fast_pskip=0 / chroma_qp_offset=-3 / threads=6 / lookahead_threads=1 / sliced_threads=0 / nr=0 / decimate=1 / interlaced=0 / bluray_compat=0 / constrained_intra=0 / bframes=11 / b_pyramid=1 / b_adapt=2 / b_bias=0 / direct=3 / weightb=1 / open_gop=0 / weightp=2 / keyint=240 / keyint_min=23 / scenecut=40 / intra_refresh=0 / rc_lookahead=150 / rc=2pass / mbtree=1 / bitrate=2015 / ratetol=1.0 / qcomp=0.70 / qpmin=0 / qpmax=69 / qpstep=4 / cplxblur=20.0 / qblur=0.5 / vbv_maxrate=20000 / vbv_bufsize=20000 / nal_hrd=none / ip_ratio=1.35 / aq=1:0.80
Язык : English
Default : Да
Forced : Нет

Аудио #1
Идентификатор : 2
Формат : AC-3
Формат/Информация : Audio Coding 3
Расширение режима : CM (complete main)
Параметр Endianness формата : Big
Идентификатор кодека : A_AC3
Продолжительность : 1 ч. 47 м.
Вид битрейта : Постоянный
Битрейт : 448 Кбит/сек
Каналы : 6 каналов
Расположение каналов : Front: L C R, Side: L R, LFE
Частота : 48,0 КГц
Битовая глубина : 16 бит
Метод сжатия : С потерями
Задержка видео : 27 мс.
Размер потока : 344 Мбайт (15%)
Заголово
8f17f161a3e575ed20bdee9bc5860774d3a027e0Возвращение героя / The Last Stand (Ким Чжи Ун, боевик, триллер, криминал, 2013) [BDRip-AVC, Профессиональный (полное дублирование) + Оригинал (английский)] Возвращение героя / The Last Stand (Ким Чжи Ун, боевик, триллер, криминал, 2013) [BDRip-AVC, Профессиональный (полное дублирование) + Оригинал (английский)] " />

Аплоадер: Админ, дата: 11-05-2013, 01:42, торрент скачан: 359 раз

Понравилась раздача? Посмотрите эти:
  • Возвращение героя / The Last Stand (Ким Чжи Ун, Боевик, триллер, криминал, ...
  • Возвращение героя / The Last Stand (Ким Чжи-ун, Боевик, триллер, криминал, ...
  • Возвращение героя / The Last Stand (Ким Чжи Ун, боевик, триллер, криминал, ...
  • Возвращение героя / The Last Stand (Ким Чжи Ун, боевик, триллер, криминал, ...
  • Возвращение героя / The Last Stand (Ким Чжи-ун, Боевик, триллер, криминал, ...
  • Возвращение героя / The Last Stand (Ким Чжи Ун, боевик, триллер, криминал, ...
  • Возвращение героя / The Last Stand (Ким Чжи-ун, Боевик, триллер, криминал, ...
  • Возвращение героя / The Last Stand (Ким Чжи-ун, Боевик, триллер, криминал, ...
  • Возвращение героя / The Last Stand (Ким Чжи-ун, Боевик, триллер, криминал, ...
  • Возвращение героя / The Last Stand (Ким Чжи-ун, Боевик, триллер, криминал, ...
  • Возвращение героя / The Last Stand (Ким Чжи-ун, Боевик, триллер, криминал, ...
  • Возвращение героя / The Last Stand (Ким Чжи-ун, Боевик, триллер, криминал, ...
  • Возвращение героя / The Last Stand (Ким Чжи Ун, Боевик, триллер, 2013) [BDR ...
  • Возвращение героя / The Last Stand (Ким Чжи Ун, боевик, триллер, криминал, ...
  • Возвращение героя / The Last Stand (Ким Чжи-ун, Боевик, триллер, криминал, ...
  • Возвращение героя / The Last Stand (Ким Чжи Ун, боевик, триллер, криминал, ...
  • [iPhone, iPod] Возвращение героя / The Last Stand (Ким Чжи Ун, боевик, трил ...
  • Возвращение героя / The Last Stand (Ким Чжи Ун, боевик, триллер, криминал, ...
  • Возвращение героя / The Last Stand (Ким Чжи Ун, боевик, триллер, криминал, ...
  • [Трейлер] Возвращение героя / The Last Stand (Ким Чжи Ун, боевик, триллер, ...
  • Информация
    Посетители, находящиеся в группе Гости, не могут оставлять комментарии к данной публикации.