вход на сайт

Имя пользователя :
Пароль :

Восстановление пароля Регистрация
Даю год / I Give It a Year (Дэн Мазер, Мелодрама, Комедия, 2013) [BDRip-AVC, Профессиональный (Дублированный)]
Рейтинг:
(голосов: 1)



[img]{THEME}/images/logopost.png[/img]



Даю год / I Give It a Year

Год выпуска: 2013
Страна: Великобритания
Производство: StudioCanal, Translux, Working Title Films
Жанр: Мелодрама, Комедия

Режиссёр: Дэн Мазер
В ролях: Роуз Бирн, Рейф Сполл, Анна Фэрис, Саймон Бейкер, Александр Макквин, Стивен Мерчант, Джейн Эшер, Теренс Харви, Минни Драйвер, Джейсон Флеминг

Перевод: Профессиональный (Дублированный)
Субтитры: Отсутствуют

Описание: Фильм в комедийном ключе поведает о всевозможных проблемах и трудностях, с которыми приходится сталкиваться молодоженам в первый год их семейной жизни.



Автор рипа: fanatus

Качество: BDRip-AVC | Сэмпл
Продолжительность: 01:33:26

Формат: MKV
Видео кодек: x.264
Аудио кодек: AC3
Видео: x.264 / 1024x428 / 2.40:1 / 1684 kbps / 23,976 fps / 0.160 bit/pixel
Аудио: 48 kHz, AC3 Dolby Digital, 3/2 (L,C,R,l,r) + LFE ch, ~448 kbps

Премьера (мир): 17 января 2013
Премьера (РФ): 14 марта 2013, «Каскад»

Media Info ▼General
Unique ID : 201880269637377382753818146547786708376 (0x97E0B9C409D837B8A5870E3983EDF598)
Complete name : D:Daju.god.2013.x264.BDRip.(AVC).fanatus.mkv
Format : Matroska
Format version : Version 2
File size : 1.45 GiB
Duration : 1h 37mn
Overall bit rate : 2 132 Kbps
Movie name : I Give It a Year (2013) - fanatus
Encoded date : UTC 2013-05-09 19:11:29
Writing application : mkvmerge v3.4.0 (Rapunzel) сборка от May 15 2010 09:38:20
Writing library : libebml v0.8.0 + libmatroska v0.9.0

Video
ID : 1
Format : AVC
Format/Info : Advanced Video Codec
Format profile : [email protected]
Format settings, CABAC : Yes
Format settings, ReFrames : 10 frames
Codec ID : V_MPEG4/ISO/AVC
Duration : 1h 37mn
Bit rate : 1 684 Kbps
Width : 1 024 pixels
Height : 428 pixels
Display aspect ratio : 2.40:1
Frame rate : 23.976 fps
Color space : YUV
Chroma subsampling : 4:2:0
Bit depth : 8 bits
Scan type : Progressive
Bits/(Pixel*Frame) : 0.160
Stream size : 1.12 GiB (77%)
Title : I Give It a Year (2013)
Writing library : x264 core 132 r2323+704+51 d571b1c tMod [[email protected] X86]
Encoding settings : cabac=1 / ref=10 / deblock=1:-2:-2 / analyse=0x3:0x113 / me=umh / subme=11 / psy=1 / fade_compensate=0.00 / psy_rd=1.05:0.00 / mixed_ref=1 / me_range=48 / chroma_me=1 / trellis=2 / 8x8dct=1 / cqm=0 / deadzone=21,11 / fast_pskip=0 / chroma_qp_offset=-2 / threads=16 / lookahead_threads=3 / sliced_threads=0 / nr=0 / decimate=0 / interlaced=0 / bluray_compat=0 / constrained_intra=0 / fgo=0 / bframes=12 / b_pyramid=2 / b_adapt=2 / b_bias=0 / direct=3 / weightb=1 / open_gop=0 / weightp=2 / keyint=240 / keyint_min=23 / scenecut=40 / intra_refresh=0 / rc_lookahead=240 / rc=2pass / mbtree=0 / bitrate=1684 / ratetol=1.0 / qcomp=0.65 / qpmin=0 / qpmax=69 / qpstep=4 / cplxblur=20.0 / qblur=0.5 / vbv_maxrate=50000 / vbv_bufsize=62500 / nal_hrd=none / ip_ratio=1.40 / pb_ratio=1.30 / aq=4:0.90 / aq-sensitivity=10.00 / aq-factor=1.00:1.00:1.00 / aq2=0 / aq3=0
Language : English
Default : Yes
Forced : No

Audio
ID : 2
Format : AC-3
Format/Info : Audio Coding 3
Mode extension : CM (complete main)
Format settings, Endianness : Big
Codec ID : A_AC3
Duration : 1h 37mn
Bit rate mode : Constant
Bit rate : 448 Kbps
Channel(s) : 6 channels
Channel positions : Front: L C R, Side: L R, LFE
Sampling rate : 48.0 KHz
Bit depth : 16 bits
Compression mode : Lossy
Stream size : 312 MiB (21%)
Title : Dub
Language : English
Default : Yes
Forced : No

Menu
00:00:00.000 : :Chapter 01
00:00:33.491 : :Chapter 02
00:10:28.169 : :Chapter 03
00:23:03.882 : :Chapter 04
00:34:08.588 : :Chapter 05
00:47:15.541 : :Chapter 06
01:00:37.091 : :Chapter 07
01:11:31.704 : :Chapter 08
01:20:38.250 : :Chapter 09



Наши рипы | Набор в РГ | Стол заказов РГ | Новости РГ



08072834753578979c73fdf0a6b38326452f9ffcДаю год / I Give It a Year (Дэн Мазер, Мелодрама, Комедия, 2013) [BDRip-AVC, Профессиональный (Дублированный)] Даю год / I Give It a Year (Дэн Мазер, Мелодрама, Комедия, 2013) [BDRip-AVC, Профессиональный (Дублированный)] " />

Аплоадер: Админ, дата: 10-05-2013, 18:19, торрент скачан: 359 раз

Понравилась раздача? Посмотрите эти:
  • Грязь / Filth (Джон С. Бейрд, криминал, драма, комедия, 2013) [BDRip-AVC, ...
  • Даю год / I Give It a Year (Дэн Мазер, Мелодрама, комедия, 2012) [BDRip, Ду ...
  • 42 / 42 (Брайан Хелгеленд, Драма, биография, спорт, 2013) [BDRip 720p, Проф ...
  • [iPhone, iPod] Даю год / I Give It a Year (Дэн Мазер, мелодрама, комедия, 2 ...
  • Даю год / I Give It a Year (Дэн Мазер, Мелодрама, Комедия, 2013) [HDRip, Пр ...
  • Даю год / I Give It a Year (Дэн Мазер, Мелодрама, комедия, 2012) [BDRip 720 ...
  • Даю год / I Give It a Year (Дэн Мазер, мелодрама, комедия, 2013) [HDRip, Пр ...
  • UFC - Best Of 2012 Year In Review[MMA,2013, BDRip 540p]
  • О чём молчат девушки (Карен Оганесян, Комедия, 2013) [BDRip-AVC, Не требует ...
  • Даю год / I Give It a Year (Дэн Мазер, Мелодрама, Комедия, 2013) [DVDRip-AV ...
  • Суррогат / The Sessions (Бен Луин, драма, 2012) [BDRip 720p, Профессиональн ...
  • Терминал / The Terminal (Стивен Спилберг, комедия, мелодрама, драма, 2004) ...
  • Жизнь прекрасна / La Vita è bella (Роберто Бениньи, Драма, мелодрама, комед ...
  • Немножко женаты / The Five-Year Engagement (Николас Столлер, Мелодрама, ком ...
  • Мальчишник в Новом Орлеане / Mardi Gras: Spring Break (Фил Дорнфелд, Комеди ...
  • [3D] Шаг вперед 3D / Step Up 3D (Джон М. Чу, мелодрама, драма, музыка, 2010 ...
  • Секс по дружбе / Friends with Benefits (Уилл Глак, драма, мелодрама, комеди ...
  • Бриллиантовая рука (Леонид Гайдай, комедия, криминал, приключения, 1968) [B ...
  • Схватка / The Grey (Джо Карнахан, Боевик, 2012) [BDRip 720p, Профессиональн ...
  • Запрещенная реальность (Константин Максимов, фантастика, боевик, 2009) [BDR ...
  • Значит, война / This Means War (МакДжи, боевик, мелодрама, комедия, 2012) [ ...
  • Ю-571 / U-571 (Джонатан Мостоу, Боевик, 2000) [BDRip - AVC, Дубляж + Субтит ...
  • Mylene Farmer / Du Temps [2011, Pop, HDTVRip]
  • Mylene Farmer / Bleu Noir [2011, Pop, HDTVRip]
  • Собачье сердце (Владимир Бортко, фантастика, драма, комедия, 1988) [BDRip 1 ...
  • Информация
    Посетители, находящиеся в группе Гости, не могут оставлять комментарии к данной публикации.