вход на сайт

Имя пользователя :
Пароль :

Восстановление пароля Регистрация
Даю год / I Give It a Year (Дэн Мазер, мелодрама, комедия, 2012) [BDRip-AVC, Профессиональный (полное дублирование) + Оригинал]
Рейтинг:
(голосов: 1)



[img]{THEME}/images/logopost.png[/img]



Даю год / I Give It a Year

Год выпуска: 2012
Страна: Великобритания, Франция, Германия
Производство: StudioCanal, Translux, Working Title Films
Жанр: мелодрама, комедия

Режиссёр: Дэн Мазер
В ролях: Роуз Бирн, Рейф Сполл, Анна Фэрис, Саймон Бейкер, Александр Макквин, Стивен Мерчант, Джейн Эшер, Теренс Харви, Минни Драйвер, Джейсон Флеминг

Перевод: Профессиональный (полное дублирование) + Оригинал (английский)
Субтитры: Отсутствуют

Описание: Фильм в комедийном ключе поведает о всевозможных проблемах и трудностях, с которыми приходится сталкиваться молодоженам в первый год их семейной жизни.



Качество: BDRip-AVC => Сэмпл | исх. Даю год / I Give It a Year (2013) Blu-ray 1080p AVC DTS 5.1
Продолжительность: 01:37:19 час.

Формат: MKV
Видео кодек: H.264
Аудио кодек:AC3
Видео: 1024x428 (2,40:1), 23,976 fps, H.264 ~2 100 kbps avg, 0.200 bit/pixel
Аудио 1: 48 kHz, AC3, 3/2 (L,C,R,l,r) + LFE ch, ~448.00 kbps avg | Профессиональный (полное дублирование)
Аудио 2: 48 kHz, AC3, 3/2 (L,C,R,l,r) + LFE ch, ~448.00 kbps avg | Оригинал (английский)

Премьера (мир) - 17 января 2013
Премьера (РФ) - 14 марта 2013, «Каскад»

MediaInfo ▼Общее
Уникальный идентификатор : 249595857649358468574179053034166981252 (0xBBC669E34666A2E1AB33E70B0E329284)
Полное имя : Daju.god.2013.x264.BDRip.mkv
Формат : Matroska
Версия формата : Version 4 / Version 2
Размер файла : 2,04 Гбайт
Продолжительность : 1 ч. 37 м.
Общий поток : 2997 Кбит/сек
Название фильма : = MediaClub = rip by Painter
Дата кодирования : UTC 2013-05-08 21:44:24
Программа кодирования : mkvmerge v6.1.0 (Old Devil) built on Mar 2 2013 14:32:37
Библиотека кодирования : libebml v1.3.0 + libmatroska v1.4.0

Видео
Идентификатор : 1
Формат : AVC
Формат/Информация : Advanced Video Codec
Профиль формата : [email protected]
Параметр CABAC формата : Да
Параметр ReFrames формата : 9 кадров
Идентификатор кодека : V_MPEG4/ISO/AVC
Продолжительность : 1 ч. 37 м.
Битрейт : 2100 Кбит/сек
Ширина : 1024 пикселя
Высота : 428 пикселей
Соотношение сторон : 2,40:1
Режим частоты кадров : Постоянный
Частота кадров : 23,976 кадра/сек
Цветовое пространство : YUV
Субдискретизация насыщенности : 4:2:0
Битовая глубина : 8 бит
Тип развёртки : Прогрессивная
Бит/(Пиксели*Кадры) : 0.200
Размер потока : 1,39 Гбайт (68%)
Библиотека кодирования : x264 core 130 r2273 b3065e6
Настройки программы : cabac=1 / ref=9 / deblock=1:-2:-2 / analyse=0x3:0x133 / me=umh / subme=11 / psy=1 / psy_rd=1.00:0.20 / mixed_ref=1 / me_range=32 / chroma_me=1 / trellis=2 / 8x8dct=1 / cqm=0 / deadzone=21,11 / fast_pskip=0 / chroma_qp_offset=-3 / threads=6 / lookahead_threads=1 / sliced_threads=0 / nr=0 / decimate=0 / interlaced=0 / bluray_compat=0 / constrained_intra=0 / bframes=7 / b_pyramid=2 / b_adapt=2 / b_bias=0 / direct=3 / weightb=1 / open_gop=0 / weightp=2 / keyint=240 / keyint_min=23 / scenecut=40 / intra_refresh=0 / rc=2pass / mbtree=0 / bitrate=2100 / ratetol=1.0 / qcomp=0.60 / qpmin=0 / qpmax=69 / qpstep=4 / cplxblur=20.0 / qblur=0.5 / ip_ratio=1.40 / pb_ratio=1.30 / aq=1:1.00
Язык : English
Default : Да
Forced : Нет

Аудио #1
Идентификатор : 2
Формат : AC-3
Формат/Информация : Audio Coding 3
Расширение режима : CM (complete main)
Параметр Endianness формата : Big
Идентификатор кодека : A_AC3
Продолжительность : 1 ч. 37 м.
Вид битрейта : Постоянный
Битрейт : 448 Кбит/сек
Каналы : 6 каналов
Расположение каналов : Front: L C R, Side: L R, LFE
Частота : 48,0 КГц
Битовая глубина : 16 бит
Метод сжатия : С потерями
Размер потока : 312 Мбайт (15%)
Язык : Russian
Default : Да
Forced : Нет

Аудио #2
Идентификатор : 3
Формат : AC-3
Формат/Информация : Audio Coding 3
Расширение режима : CM (complete main)
Параметр Endianness формата : Big
Идентификатор кодека : A_AC3
Продолжительность : 1 ч. 37 м.
Вид битрейта : Постоянный
Битрейт : 448 Кбит/сек
Каналы : 6 каналов
Расположение каналов : Front: L C R, Side: L R, LFE
Частота : 48,0 КГц
Битовая глубина : 16 бит
Метод сжат
e3123bd9699ac718fb58596947ca7163c368b73eДаю год / I Give It a Year (Дэн Мазер, мелодрама, комедия, 2012) [BDRip-AVC, Профессиональный (полное дублирование) + Оригинал] Даю год / I Give It a Year (Дэн Мазер, мелодрама, комедия, 2012) [BDRip-AVC, Профессиональный (полное дублирование) + Оригинал] " />

Аплоадер: Админ, дата: 9-05-2013, 11:09, торрент скачан: 359 раз

Понравилась раздача? Посмотрите эти:
  • Андроид / Android (App) (Бобо Боерманс, Tриллер, 2013) [BDRip-AVC, Професси ...
  • Война миров Z / World War Z [Theatrical Cut] (Марк Форстер, ужасы, фантасти ...
  • Место под соснами / The Place Beyond the Pines (Дерек Сиенфрэнс, драма, кри ...
  • Даю год / I Give It a Year (Дэн Мазер, Мелодрама, комедия, 2012) [BDRip, Ду ...
  • Даю год / I Give It a Yea (Дэн Мазер, Мелодрама, комедия, 2012) [BDRip, Дуб ...
  • Даю год / I Give It a Year (Дэн Мазер, Мелодрама, 2012) [BDRip-AVC, Дубляж ...
  • Даю год / I Give It a Year (Дэн Мазер, Мелодрама, комедия , 2012) [BDRip 10 ...
  • Ослепленный желаниями / Bedazzled (Харольд Рэмис, фэнтези, комедия, мелодра ...
  • Поймай толстуху, если сможешь [Театральная версия] / Identity Thief [Theatr ...
  • [iPhone, iPod] Даю год / I Give It a Year (Дэн Мазер, мелодрама, комедия, 2 ...
  • Даю год / I Give It a Year (Дэн Мазер, Мелодрама, комедия, 2012) [Blu-ray D ...
  • Даю год / I Give It a Year (Дэн Мазер, Мелодрама, Комедия, 2013) [HDRip, Пр ...
  • Даю год / I Give It a Year (Дэн Мазер, Мелодрама, комедия, 2012) [Blu-ray [ ...
  • Даю год / I Give It a Year (Дэн Мазер, Мелодрама, комедия, 2012) [BDRip 720 ...
  • Даю год / I Give It a Year (Дэн Мазер, мелодрама, комедия, 2013) [HDRip, Пр ...
  • Даю год / I Give It a Year (Дэн Мазер, Мелодрама, комедия, 2012) [BDRip 108 ...
  • Даю год / I Give It a Year (Дэн Мазер, Мелодрама, комедия, 2013) [HDRip-AVC ...
  • Даю год / I Give It a Year (Дэн Мазер, Мелодрама, Комедия, 2013) [BDRip-AVC ...
  • Даю год / I Give It a Year (Дэн Мазер, Мелодрама, комедия, 2013) [DVDRip, Д ...
  • Даю год / I Give It a Year (Дэн Мазер, мелодрама, комедия, 2013) [DVD9 R5, ...
  • Даю год / I Give It a Year (Дэн Мазер, Мелодрама, комедия, 2013) [DVDRip, Д ...
  • Даю год / I Give It a Year (Дэн Мазер, Мелодрама, Комедия, 2013) [DVDRip-AV ...
  • Суррогат / The Sessions (Бен Луин, Драма, 2012) [BDRip-AVC, Профессиональны ...
  • Даю год / I Give It a Year (Дэн Мазер, Мелодрама, комедия, 2013) [HDTVRip 1 ...
  • Сейчас самое время / Now Is Good (Ол Паркер, Мелодрама, 2012) [BDRip-AVC, П ...
  • Информация
    Посетители, находящиеся в группе Гости, не могут оставлять комментарии к данной публикации.