вход на сайт

Имя пользователя :
Пароль :

Восстановление пароля Регистрация
Мрачные небеса / Dark Skies (Скотт Чарльз Стюарт, Ужасы, фантастика, триллер, 2013) [BDRip-AVC, Дубляж, Оригинал (английский), Sub]
Рейтинг:
(голосов: 1)



[img]{THEME}/images/logopost.png[/img]



Мрачные небеса / Dark Skies
«Если тебя выбрали, уже не скрыться»

Год выпуска: 2013
Страна: США
Производство: Alliance Films, Blumhouse Productions
Жанр: Ужасы, фантастика, триллер

Режиссёр: Скотт Чарльз Стюарт
В ролях: Кери Рассел, Джош Хэмилтон, Дакота Гойо, Кадан Рокетт, Дж.К. Симмонс, Л.Дж. Бенет, Рич Хатчмэн, Минди Крист, Энни Турман, Джейк Уошберн

Перевод: Дубляж, Оригинал (английский)
Субтитры: Английские

Описание: Странные вещи начинают происходить в обычной семье жителей пригорода. Электронные приборы без причины отключаются. Дети повсюду находят мертвых птиц.

В их дом проникают инопланетные существа, которые по какой то причине следят за семьей. Чем больше странных, мистических вещей начинает происходить в доме, тем быстрее становится ясно: загадочные существа, прилетевшие с другой планеты в поисках новой жизни, охотятся на детей, живущих там.



Качество: BDRip-AVC | Сэмпл
Продолжительность: 01:37:08 час.

Формат: MKV
Видео кодек: x.264
Аудио кодек: AC3
Видео: x.264 / 1280 x 534 / 2.40:1 / 1704kbps / 23,976 fps / 0.104 bit/pixel
Аудио#1: 48 kHz, AC3 Dolby Digital, 3/2 (L,C,R,l,r) + LFE ch, ~448 kbps avg - (Дубляж)
Аудио#2: 48 kHz, AC3 Dolby Digital, 3/2 (L,C,R,l,r) + LFE ch, ~448 kbps avg - (Оригинал)

Премьера (мир): 21 февраля 2013
Премьера (РФ): 21 февраля 2013, «Top Film Distribution»

Media Info ▼Format : Matroska
Format version : Version 2
File size : 1.80 GiB
Duration : 1h 37mn
Overall bit rate : 2 653 Kbps
Movie name : [email protected]
Encoded date : UTC 2013-05-07 18:35:20
Writing application : mkvmerge v4.0.0 (The Stars were mine) built on Jun 6 2010 16:18:42
Writing library : libebml v1.0.0 + libmatroska v1.0.0

Video
ID : 1
Format : AVC
Format/Info : Advanced Video Codec
Format profile : [email protected]
Format settings, CABAC : Yes
Format settings, ReFrames : 12 frames
Codec ID : V_MPEG4/ISO/AVC
Duration : 1h 37mn
Bit rate : 1 704 Kbps
Width : 1 280 pixels
Height : 534 pixels
Display aspect ratio : 2.40:1
Frame rate mode : Constant
Frame rate : 23.976 fps
Color space : YUV
Chroma subsampling : 4:2:0
Bit depth : 8 bits
Scan type : Progressive
Bits/(Pixel*Frame) : 0.104
Stream size : 1.16 GiB (64%)
Writing library : x264 core 130 r2273 b3065e6
Encoding settings : cabac=1 / ref=12 / deblock=1:-2:-1 / analyse=0x3:0x113 / me=umh / subme=11 / psy=1 / psy_rd=0.95:0.00 / mixed_ref=1 / me_range=32 / chroma_me=1 / trellis=2 / 8x8dct=1 / cqm=0 / deadzone=21,11 / fast_pskip=0 / chroma_qp_offset=-2 / threads=6 / lookahead_threads=1 / sliced_threads=0 / nr=0 / decimate=1 / interlaced=0 / bluray_compat=0 / constrained_intra=0 / bframes=10 / b_pyramid=2 / b_adapt=2 / b_bias=0 / direct=1 / weightb=1 / open_gop=0 / weightp=2 / keyint=240 / keyint_min=23 / scenecut=40 / intra_refresh=0 / rc=crf / mbtree=0 / crf=18.0 / qcomp=0.60 / qpmin=0 / qpmax=69 / qpstep=4 / ip_ratio=1.40 / pb_ratio=1.30 / aq=1:0.80
Language : English
Default : No
Forced : No

Audio #1
ID : 2
Format : AC-3
Format/Info : Audio Coding 3
Mode extension : CM (complete main)
Format settings, Endianness : Big
Codec ID : A_AC3
Duration : 1h 37mn
Bit rate mode : Constant
Bit rate : 448 Kbps
Channel(s) : 6 channels
Channel positions : Front: L C R, Side: L R, LFE
Sampling rate : 48.0 KHz
Bit depth : 16 bits
Compression mode : Lossy
Stream size : 311 MiB (17%)
Title : Дубляж
Language : Russian
Default : Yes
Forced : No

Audio #2
ID : 3
Format : AC-3
Format/Info : Audio Coding 3
Mode extension : CM (complete main)
Format settings, Endianness : Big
Codec ID : A_AC3
Duration : 1h 37mn
Bit rate mode : Constant
Bit rate : 448 Kbps
Channel(s) : 6 channels
Channel positions : Front: L C R, Side: L R, LFE
Sampling rate : 48.0 KHz
Bit depth : 16 bits
Compression mode : Lossy
Stream size : 311 MiB (17%)
Title : Оригинал
Language
3deaaa3e2fea6fcc0d15db84c7e644fac7bf26ccМрачные небеса / Dark Skies (Скотт Чарльз Стюарт, Ужасы, фантастика, триллер, 2013) [BDRip-AVC, Дубляж, Оригинал (английский), Sub] Мрачные небеса / Dark Skies (Скотт Чарльз Стюарт, Ужасы, фантастика, триллер, 2013) [BDRip-AVC, Дубляж, Оригинал (английский), Sub] " />

Аплоадер: Админ, дата: 8-05-2013, 09:38, торрент скачан: 359 раз

Понравилась раздача? Посмотрите эти:
  • Грязь / Filth (Джон С. Бейрд, криминал, драма, комедия, 2013) [BDRip-AVC, ...
  • Погнали! / Getaway (Кортни Соломон, боевик, криминал, 2013) [BDRip 720p, Пр ...
  • Пастырь / Priest (Скотт Чарльз Стюарт, ужасы, фантастика, боевик, триллер, ...
  • Воображариум / Imaginaerum (Стобе Харью, Фэнтези, приключения, мюзикл, драм ...
  • Четвертый вид / The Fourth Kind (Олатунде Осунсанми, ужасы, фантастика, 200 ...
  • Хроника / Chronicle (Джошуа Транк, фантастика, боевик, триллер, драма, 2012 ...
  • Мрачные небеса / Dark Skies (Скотт Чарльз Стюарт, Ужасы, фантастика, трилле ...
  • Мрачные небеса / Dark Skies (Скотт Чарльз Стюарт, Ужасы, фантастика, трилле ...
  • Мрачные небеса / Dark Skies (Скотт Чарльз Стюарт, Ужасы, фантастика, трилле ...
  • Мрачные небеса / Dark Skies (Скотт Чарльз Стюарт, ужасы, фантастика, трилле ...
  • Мрачные небеса / Dark Skies (Скотт Чарльз Стюарт, ужасы, фантастика, трилле ...
  • Железный Кулак [Театральная версия] / The Man with the Iron Fists [Theatric ...
  • Мрачные небеса / Dark Skies (Скотт Чарльз Стюарт, ужасы, фантастика, трилле ...
  • Синистер / Sinister (Скотт Дерриксон, ужасы, детектив, 2012) [BDRip-AVC, Ду ...
  • Экипаж / Flight (Роберт Земекис, Драма, 2012) [BDRip-AVC, Профессиональный ...
  • Черный дрозд / Deadfall (Штефан Руцовицки, Триллер, драма, криминал, 2012) ...
  • Центурион / Centurion (Нил Маршалл / Neil Marshall, Боевик, триллер, драма, ...
  • Коллекционер 2 / The Collection (Маркус Данстэн, ужасы, боевик, триллер , 2 ...
  • [3D] Другой мир: Пробуждение / Underworld: Awakening (Манс Марлинд , ужасы, ...
  • Чаббчаббы спасают Рождество / The Chubbchubbs Save Xmas (Коуди Камерон, мул ...
  • «Весёлые» каникулы / Get the Gringo (Адриан Грюнберг, Боевик, комедия, 2012 ...
  • Ворон / The Raven (Джеймс МакТиг, Триллер, детектив, 2012) [BDRip 720p, Дуб ...
  • Пираньи 3DD / Piranha 3DD (Джон Гулажер, ужасы, триллер, комедия, 2012) [BD ...
  • Mylene Farmer / Du Temps [2011, Pop, HDTVRip]
  • Mylene Farmer / Bleu Noir [2011, Pop, HDTVRip]
  • Информация
    Посетители, находящиеся в группе Гости, не могут оставлять комментарии к данной публикации.