вход на сайт

Имя пользователя :
Пароль :

Восстановление пароля Регистрация
Легенда №17 (Николай Лебедев, Спорт, драма, биография, 2013) [BDRip-AVC, Не требуется]
Рейтинг:
(голосов: 1)



[img]{THEME}/images/logopost.png[/img]



Легенда №17

Год выпуска: 2013
Страна: Россия
Производство: Канал Россия, Студия Тритэ
Жанр: Спорт, драма, биография

Режиссёр: Николай Лебедев
В ролях: Данила Козловский, Олег Меньшиков, Владимир Меньшов, Роман Мадянов, Светлана Иванова, Алехандра Грепи, Борис Щербаков, Гёц Отто, Александр Лобанов, Валентин Смирнитский

Перевод: Не требуется
Субтитры: Отсутствуют

Описание: 2 сентября 1972 года. Монреаль. Хоккейная сборная СССР с разгромным счетом 7:3 победила канадских профессионалов из НХЛ в стартовом матче эпохальной Суперсерии СССР-Канада. Это была не просто игра, это была битва за свою страну, которая перевернула мировое представление о хоккее. Теперь весь мир знал его просто по номеру «17». Валерий Харламов, забивший в том матче 2 шайбы, мгновенно взлетел на вершину славы. Сбылась его мечта -упорство, спортивный талант и суровые уроки великого тренера Анатолия Тарасова сделали из «номера 17» легенду мирового хоккея.Качество: BDRip-AVC | Сэмпл |
Продолжительность: 02:13:53 час.


Формат: MKV
Видео кодек: x264
Аудио кодек: AC3
Видео: 1032x432 (2.40:1), 24.000 fps, x264 ~1892 kbps avg, 0.177 bit/pixel
Аудио: 48 kHz, AC3 Dolby Digital, 3/2 (L,C,R,l,r) + LFE ch, ~448 kbps avg

Дата премьеры (мир): 18 апреля 2013
Дата премьеры (РФ): 18 апреля 2013, «Централ Партнершип»

MediaInfo ▼
Общее
Уникальный идентификатор : 229098391686940596247929134727375896238 (0xAC5ABECA69D4FC55BF8F6ACA07B43EAE)
Полное имя : Legenda.№.17.2013.O.BDRip.x264.potroks.mkv
Формат : Matroska
Версия формата : Version 4 / Version 2
Размер файла : 2,19 Гбайт
Продолжительность : 2 ч. 13 м.
Общий поток : 2341 Кбит/сек
Название фильма : -=POTROKS=-
Дата кодирования : UTC 2013-05-25 11:59:54
Программа кодирования : mkvmerge v5.9.0 (On The Loose) built on Dec 15 2012 16:39:58
Библиотека кодирования : libebml v1.3.0 + libmatroska v1.4.0

Видео
Идентификатор : 1
Формат : AVC
Формат/Информация : Advanced Video Codec
Профиль формата : [email protected]
Параметр CABAC формата : Да
Параметр ReFrames формата : 10 кадров
Идентификатор кодека : V_MPEG4/ISO/AVC
Продолжительность : 2 ч. 13 м.
Битрейт : 1892 Кбит/сек
Ширина : 1032 пикселя
Высота : 432 пикселя
Соотношение сторон : 2,40:1
Режим частоты кадров : Постоянный
Частота кадров : 24,000 кадра/сек
Цветовое пространство : YUV
Субдискретизация насыщенности : 4:2:0
Битовая глубина : 8 бит
Тип развёртки : Прогрессивная
Бит/(Пиксели*Кадры) : 0.177
Размер потока : 1,73 Гбайт (79%)
Заголовок : Легенда №17
Библиотека кодирования : x264 core 125 r2208 d9d2288
Настройки программы : cabac=1 / ref=10 / deblock=1:-3:-3 / analyse=0x3:0x133 / me=esa / subme=9 / psy=1 / psy_rd=0.98:0.00 / mixed_ref=1 / me_range=48 / chroma_me=1 / trellis=2 / 8x8dct=1 / cqm=0 / deadzone=21,11 / fast_pskip=0 / chroma_qp_offset=-2 / threads=9 / lookahead_threads=1 / sliced_threads=0 / nr=0 / decimate=1 / interlaced=0 / bluray_compat=0 / constrained_intra=0 / bframes=11 / b_pyramid=2 / b_adapt=2 / b_bias=0 / direct=3 / weightb=1 / open_gop=0 / weightp=2 / keyint=240 / keyint_min=23 / scenecut=40 / intra_refresh=0 / rc_lookahead=150 / rc=2pass / mbtree=1 / bitrate=1892 / ratetol=1.0 / qcomp=0.70 / qpmin=0 / qpmax=69 / qpstep=4 / cplxblur=20.0 / qblur=0.5 / vbv_maxrate=20000 / vbv_bufsize=20000 / nal_hrd=none / ip_ratio=1.35 / aq=1:0.90
Язык : Russian
Default : Да
Forced : Нет

Аудио
Идентификатор : 2
Формат : AC-3
Формат/Информация : Audio Coding 3
Расширение режима : CM (complete main)
Параметр Endianness формата : Big
Идентификатор кодека : A_AC3
Продолжительность : 2 ч. 13 м.
Вид битрейта : Постоянный
Битрейт : 448 Кбит/сек
Каналы : 6 каналов
Расположение каналов : Front: L C R, Side: L R, LFE
Частота : 48,0 КГц
Битовая глубина : 16 бит
Метод сжатия : С потерями
Размер потока : 429 Мбайт (19%)
Заголовок : DD 5.1 @ 448 kbps
Язык : Russian
Default : Да
Forced : Да


 
4635896b4c75a2a71bee9acafe99d109c9fdf9a0Легенда №17 (Николай Лебедев, Спорт, драма, биография, 2013) [BDRip-AVC, Не требуется] Легенда №17 (Николай Лебедев, Спорт, драма, биография, 2013) [BDRip-AVC, Не требуется] " />

Аплоадер: Админ, дата: 25-05-2013, 18:59, торрент скачан: 359 раз

Понравилась раздача? Посмотрите эти:
  • Никто не выжил / No One Lives (Рюхэй Китамура, Триллер, ужасы, 2012) [BDRip ...
  • Летучий отряд Скотланд-Ярда / The Sweeney (Ник Лав, Боевик, драма, криминал ...
  • Порочные игры / Stoker (Пак Чхан Ук, Триллер, драма, детектив, 2013) [BDRip ...
  • Легенда №17 (Николай Лебедев, Спорт, драма, биография, 2013) [HDRip-AVC, Не ...
  • Легенда №17 (Николай Лебедев, Спорт, драма, биография, 2013) [HDRip-AVC, Не ...
  • Легенда №17 (Николай Лебедев, Спорт, драма, биография, 2013) [BDRip-AVC, Не ...
  • Легенда №17 (Николай Лебедев, Спорт, драма, биография, 2013) [BDRip-AVC, Не ...
  • Легенда №17 (Николай Лебедев, Спорт, драма, биография, 2013) [Blu-ray [RUS] ...
  • Легенда №17 (Николай Лебедев, Спорт, драма, биография, 2013) [BD Remux, 10 ...
  • Легенда №17 (Николай Лебедев, Спорт, драма, биография, 2013) [BDRip, Не тре ...
  • Легенда №17 (Николай Лебедев, Спорт, драма, биография, 2013) [BDRip 720p, Н ...
  • Легенда №17 (Николай Лебедев, Спорт, драма, биография, 2013) [BDRip 1080p, ...
  • Легенда №17 (Николай Лебедев, спорт, драма, биография, 2013) [HDRip, Не тре ...
  • Легенда №17 (Николай Лебедев, спорт, драма, биография, 2013) [BDRip, Не тре ...
  • Легенда №17 (Николай Лебедев, Спорт, драма, биография, 2013) [BDRip-AVC, Не ...
  • Легенда №17 (Николай Лебедев, Спорт, драма, биография, 2013) [DVD9 R5, Не т ...
  • Легенда №17 (Николай Лебедев, Спорт, драма, биография, 2013) [DVD9 R5, Не т ...
  • Легенда №17 (Николай Лебедев, спорт, драма, биография, 2013) [DVDScr, |Не т ...
  • Легенда №17 (Николай Лебедев, спорт, драма, биография, 2013) [DVDScr, Не тр ...
  • [Трейлер] Легенда №17 (Николай Лебедев, биография, спорт) [HDRip, Не требуе ...
  • Информация
    Посетители, находящиеся в группе Гости, не могут оставлять комментарии к данной публикации.