вход на сайт

Имя пользователя :
Пароль :

Восстановление пароля Регистрация
Таймлесс. Рубиновая книга / Rubinrot (Феликс Фуксштайнер, Фантастика, фэнтези, приключения, 2013) [BDRip-AVC, Дубляж, Оригинал (Немецкий), Sub]
Рейтинг:
(голосов: 1)



[img]{THEME}/images/logopost.png[/img]



Таймлесс. Рубиновая книга / Rubinrot
«Любовь будет вечной, если ты - повелитель времени»

Год выпуска: 2013
Страна: Германия
Производство: Geißendörfer Film- und Fernsehproduktion (GFF), Lieblingsfilm, mem-film, Tele-München (TMG)
Жанр: Фантастика, фэнтези, приключения

Режиссёр: Феликс Фуксштайнер
В ролях: Мария Эрих, Яннис Нивёнер, Вероника Феррес, Уве Коккиш, Катарина Тальбах, Готфрид Йон, Герлинде Локкер, Рюдигер Фоглер, Флориан Бартоломай, Дженнифер Лотси...

Перевод: Дубляж, Оригинал (Немецкий)
Субтитры: русский

Описание: Живущая в Лондоне шестнадцатилетняя Гвендолин Шеферд случайно узнает, что обладает уникальным геном путешественника во времени, который унаследовала от прапрабабушки. Теперь девушка может ежедневно переноситься в прошлое, и с каждым днем загадок становится все больше. Что такое «Тайна Двенадцати»? Кто охотится на путешественников во времени в прошлом? И почему все вокруг думают, что она обладает какой-то «магией ворона»?Качество: BDRip-AVC | Сэмпл
Продолжительность: 02:01:11 час.

Формат: MKV
Видео кодек: x264
Аудио кодек: AC3
Видео: 1024x428 (2.40:1), 24.000 fps, x264 ~1 679 kbps avg, 0.160 bit/pixel
Аудио#1: 48 kHz, AC3 Dolby Digital, 3/2 (L,C,R,l,r) + LFE ch, ~448 kbps - (Дубляж)
Аудио#2: 48 kHz, AC3 Dolby Digital, 3/2 (L,C,R,l,r) + LFE ch, ~448 kbps - (Оригинал)

Дата премьеры (мир): 14 марта 2013
Дата премьеры (РФ): 14 марта 2013, «Каравелла DDC»

MediaInfo ▼Общее
Полное имя : Rubinovaya.kniga.2013.D.BDRip-AVC.mkv
Формат : Matroska
Версия формата : Version 4 / Version 2
Размер файла : 2,18 Гбайт
Продолжительность : 2 ч. 1 м.
Общий поток : 2577 Кбит/сек
Дата кодирования : UTC 2013-05-21 05:47:02
Программа кодирования : mkvmerge v6.1.0 (Old Devil) built on Mar 2 2013 14:32:37
Библиотека кодирования : libebml v1.3.0 + libmatroska v1.4.0

Видео
Идентификатор : 1
Формат : AVC
Формат/Информация : Advanced Video Codec
Профиль формата : [email protected]
Параметр CABAC формата : Да
Параметр ReFrames формата : 11 кадров
Идентификатор кодека : V_MPEG4/ISO/AVC
Продолжительность : 2 ч. 1 м.
Битрейт : 1679 Кбит/сек
Ширина : 1024 пикселя
Высота : 428 пикселей
Соотношение сторон : 2,40:1
Режим частоты кадров : Постоянный
Частота кадров : 24,000 кадра/сек
Цветовое пространство : YUV
Субдискретизация насыщенности : 4:2:0
Битовая глубина : 8 бит
Тип развёртки : Прогрессивная
Бит/(Пиксели*Кадры) : 0.160
Размер потока : 1,38 Гбайт (63%)
Библиотека кодирования : x264 core 130 r2273 b3065e6
Настройки программы : cabac=1 / ref=11 / deblock=1:-2:-1 / analyse=0x3:0x113 / me=umh / subme=9 / psy=1 / psy_rd=1.00:0.10 / mixed_ref=1 / me_range=32 / chroma_me=1 / trellis=2 / 8x8dct=1 / cqm=0 / deadzone=21,11 / fast_pskip=1 / chroma_qp_offset=-3 / threads=9 / lookahead_threads=2 / sliced_threads=0 / nr=0 / decimate=1 / interlaced=0 / bluray_compat=0 / constrained_intra=0 / bframes=10 / b_pyramid=2 / b_adapt=2 / b_bias=0 / direct=3 / weightb=1 / open_gop=0 / weightp=2 / keyint=240 / keyint_min=23 / scenecut=40 / intra_refresh=0 / rc_lookahead=80 / rc=2pass / mbtree=1 / bitrate=1679 / ratetol=1.0 / qcomp=0.60 / qpmin=0 / qpmax=69 / qpstep=4 / cplxblur=20.0 / qblur=0.5 / ip_ratio=1.40 / aq=2:0.90
Язык : German
Default : Да
Forced : Нет

Аудио #1
Идентификатор : 2
Формат : AC-3
Формат/Информация : Audio Coding 3
Расширение режима : CM (complete main)
Параметр Endianness формата : Big
Идентификатор кодека : A_AC3
Продолжительность : 2 ч. 1 м.
Вид битрейта : Постоянный
Битрейт : 448 Кбит/сек
Каналы : 6 каналов
Расположение каналов : Front: L C R, Side: L R, LFE
Частота : 48,0 КГц
Битовая глубина : 16 бит
Метод сжатия : С потерями
Размер потока : 388 Мбайт (17%)
Язык : Russian
Default : Да
Forced : Нет

Аудио #2
Идентификатор : 3
Формат : AC-3
Формат/Информация : Audio Coding 3
Расширение режима : CM (complete main)
Параметр Endianness формата : Big
Идентификатор кодека : A_AC3
Продол
5eeef1d3708198fd5aacae44ac8bf03fbf31c72dТаймлесс. Рубиновая книга / Rubinrot (Феликс Фуксштайнер, Фантастика, фэнтези, приключения, 2013) [BDRip-AVC, Дубляж, Оригинал (Немецкий), Sub] Таймлесс. Рубиновая книга / Rubinrot (Феликс Фуксштайнер, Фантастика, фэнтези, приключения, 2013) [BDRip-AVC, Дубляж, Оригинал (Немецкий), Sub] " />

Аплоадер: Админ, дата: 21-05-2013, 14:47, торрент скачан: 359 раз

Понравилась раздача? Посмотрите эти:
  • Византия / Byzantium (Нил Джордан, Фэнтези, триллер, драма, 2012) [BDRip 10 ...
  • Война миров Z / World War Z [Theatrical Cut] (Марк Форстер, ужасы, фантасти ...
  • Филадельфия / Philadelphia (Джонатан Демме, Драма, 1993) [BDRip-AVC, Профес ...
  • Таймлесс. Рубиновая книга / Rubinrot (Феликс Фуксштайнер, Фантастика, 2013) ...
  • Стукач / Snitch (Рик Роман Во, Триллер, драма, 2013) [BDRip-AVC, Дубляж, Ор ...
  • Никто не выжил / No One Lives (Рюхэй Китамура, Триллер, ужасы, 2012) [BDRip ...
  • Таймлесс. Рубиновая книга / Rubinrot (Феликс Фуксштайнер, Фантастика, фэнте ...
  • Таймлесс. Рубиновая книга / Rubinrot (Феликс Фуксштайнер, фантастика, фэнте ...
  • Таймлесс. Рубиновая книга / Rubinrot (Феликс Фуксштайнер, Фантастика, фэнте ...
  • Таймлесс. Рубиновая книга / Rubinrot (Феликс Фуксштайнер, Фантастика, фэнте ...
  • Таймлесс. Рубиновая книга / Rubinrot (Феликс Фуксштайнер, Фантастика, фэнте ...
  • Даю год / I Give It a Year (Дэн Мазер, мелодрама, комедия, 2012) [BDRip-AVC ...
  • 21 и больше / 21 & Over (Джон Лукас, Скотт Мур, Комедия, 2013) [BDRip-AVC, ...
  • Таймлесс. Рубиновая книга / Rubinrot (Феликс Фуксштайнер, фантастика, фэнте ...
  • Таймлесс. Рубиновая книга / Rubinrot (Феликс Фуксштайнер, фантастика, фэнте ...
  • Таймлесс. Рубиновая книга / Rubinrot (Феликс Фуксштайнер, Фантастика, фэнте ...
  • Таймлесс. Рубиновая книга / Rubinrot (Феликс Фуксштайнер, Фантастика, фэнте ...
  • Таймлесс. Рубиновая книга / Rubinrot (Феликс Фуксштайнер, Фантастика, фэнте ...
  • Таймлесс. Рубиновая книга / Rubinrot (Феликс Фуксштайнер, фантастика, фэнте ...
  • Таймлесс. Рубиновая книга / Rubinrot (Феликс Фуксштайнер, Фантастика, фэнте ...
  • Ангелы Чарли / Charlies Angels (МакДжи, Боевик, триллер, комедия, криминал, ...
  • Толстяк на ринге / Here Comes the Boom (Фрэнк Корачи, Боевик, комедия, 2012 ...
  • Суррогат / The Sessions (Бен Луин, Драма, 2012) [BDRip-AVC, Профессиональны ...
  • Голодные игры / The Hunger Games (Гэри Росс, Фантастика, боевик, приключени ...
  • Морской бой / Battleship (Питер Берг, Фантастика, Боевик, Триллер, 2012) [B ...
  • Информация
    Посетители, находящиеся в группе Гости, не могут оставлять комментарии к данной публикации.