вход на сайт

Имя пользователя :
Пароль :

Восстановление пароля Регистрация
Место под соснами / The Place Beyond the Pines (Дерек Сиенфрэнс, драма, криминал, 2012) [HDRip-AVC, Профессиональный (дублированный)]
Рейтинг:
(голосов: 1)



[img]{THEME}/images/logopost.png[/img]



Место под соснами / The Place Beyond the Pines
«Месть в наследство»



Год выпуска: 2012
Страна: США
Производство: Electric City Entertainment, Focus Features, Hunting Lane Films
Жанр: Драма, криминал

Режиссер: Дерек Сиенфрэнс
В ролях: Райан Гослинг, Брэдли Купер, Ева Мендес, Рэй Лиотта, Бен Мендельсон, Роуз Бирн, Махершалалхашбаз Али, Брюс Гринвуд, Харрис Юлин, Дэйн ДеХаан

Перевод: Профессиональный (полное дублирование)
Субтитры: Отсутствуют

Описание: История профессионального мотогонщика, который начинает грабить банки, чтобы содержать новорожденного сына. Однажды на его пути встает полицейский, и столкновение парней перерастает в личную войну.


МедиаИнфо ▼Text
C:The.Place.Beyond.the.Pines.2012.D.HDRip.(AVC).mkv
General
Unique ID : 218061030090864955988679592870714446847 (0xA40D06D97459DFD5BF77827B77A293FF)
Complete name : C:The.Place.Beyond.the.Pines.2012.D.HDRip.(AVC).mkv
Format : Matroska
File size : 2.18 GiB
Duration : 2h 20mn
Overall bit rate : 2 226 Kbps
Encoded date : UTC 2013-06-03 15:02:47
Writing application : mkvmerge v6.2.0 (Promised Land) built on Apr 28 2013 12:22:01
Writing library : libebml v1.3.0 + libmatroska v1.4.0
Video #1
ID : 1
Format : AVC
Format/Info : Advanced Video Codec
Format profile : [email protected]
Format settings, CABAC : Yes
Format settings, ReFrames : 5 frames
Codec ID : V_MPEG4/ISO/AVC
Duration : 2h 20mn
Bit rate : 1 777 Kbps
Width : 1 024 pixels
Height : 432 pixels
Display aspect ratio : 2.35:1
Frame rate : 24.000 fps
Color space : YUV
Chroma subsampling : 4:2:0
Bit depth : 8 bits
Scan type : Progressive
Bits/(Pixel*Frame) : 0.167
Stream size : 1.70 GiB (78%)
Writing library : x264 core 130 r2273 b3065e6
Encoding settings : cabac=1 / ref=5 / deblock=1:-1:-1 / analyse=0x3:0x113 / me=umh / subme=8 / psy=1 / psy_rd=1.00:0.20 / mixed_ref=1 / me_range=16 / chroma_me=1 / trellis=1 / 8x8dct=1 / cqm=0 / deadzone=21,11 / fast_pskip=1 / chroma_qp_offset=-3 / threads=18 / lookahead_threads=3 / sliced_threads=0 / nr=0 / decimate=0 / interlaced=0 / bluray_compat=0 / constrained_intra=0 / bframes=3 / b_pyramid=2 / b_adapt=2 / b_bias=0 / direct=3 / weightb=1 / open_gop=0 / weightp=2 / keyint=250 / keyint_min=23 / scenecut=40 / intra_refresh=0 / rc_lookahead=50 / rc=2pass / mbtree=1 / bitrate=1777 / ratetol=1.0 / qcomp=0.60 / qpmin=0 / qpmax=69 / qpstep=4 / cplxblur=20.0 / qblur=0.5 / vbv_maxrate=17500 / vbv_bufsize=14000 / nal_hrd=none / ip_ratio=1.40 / aq=1:1.00
Audio #2
ID : 2
Format : AC-3
Format/Info : Audio Coding 3
Mode extension : CM (complete main)
Codec ID : A_AC3
Duration : 2h 20mn
Bit rate mode : Constant
Bit rate : 448 Kbps
Channel(s) : 6 channels
Channel positions : Front: L C R, Side: L R, LFE
Sampling rate : 48.0 KHz
Bit depth : 16 bits
Compression mode : Lossy
Stream size : 449 MiB (20%)
Премьера (мир): 7 сентября 2012
Премьера (РФ):: 18 апреля 2013, «Каравелла DDC»
релиз на DVD: 5 июня 2013, «Кармен Видео», «ВС трейд»
Релиз на Blu-Ray: 5 июня 2013, «Кармен Видео»
Рейтинг MPAA: лицам до 17 лет обязательно присутствие взрослого


Качество: HDRip-AVC | Сэмпл
Продолжительность: 02:20:13

Формат: MKV
Видео кодек: MPEG-4 AVC
Аудио кодек: AC3 Dolby Digital
Видео: 1024x432 (4:2:0), 24.000 fps, MPEG-4 AVC~ 1777 Кбит/с, 0.167 bit/pixel
Аудио: 48 kHz, AC3 Dolby Digital, 6 ch, ~ 448 Кбит/с



213109fdca1a5afe082134b0739cec7bc6e4ba2dМесто под соснами / The Place Beyond the Pines (Дерек Сиенфрэнс, драма, криминал, 2012) [HDRip-AVC, Профессиональный (дублированный)] Место под соснами / The Place Beyond the Pines (Дерек Сиенфрэнс, драма, криминал, 2012) [HDRip-AVC, Профессиональный (дублированный)] " />

Аплоадер: Админ, дата: 4-06-2013, 05:45, торрент скачан: 359 раз

Понравилась раздача? Посмотрите эти:
  • Место под соснами / The Place Beyond the Pines (Дерек Сиенфрэнс, драма, кри ...
  • FLO / NRG [2012, Pop, Dance, MasterRip]
  • Eminem / Rap God [2013, Rap, HDRip]
  • Brit Smith feat. Will.i.am / Provocative (Explicit) [2013, Hip-Hop, HDRip]
  • Властелин любви / The Look of Love (Майкл Уинтерботтом, драма, комедия, био ...
  • Место под соснами / The Place Beyond the Pines (Дерек Сиенфрэнс, Драма, Кри ...
  • Место под соснами / The Place Beyond the Pines (Дерек Сиенфрэнс, драма, кри ...
  • Место под соснами / The Place Beyond the Pines (Дерек Сиенфрэнс, драма, кри ...
  • Место под соснами / The Place Beyond the Pines (Дерек Сиенфрэнс, Драма, Кри ...
  • Место под соснами / The Place Beyond the Pines (Дерек Сиенфрэнс, Драма, Кри ...
  • Место под соснами / The Place Beyond the Pines (Дерек Сиенфрэнс, драма, кри ...
  • Место под соснами / The Place Beyond the Pines (Дерек Сиенфрэнс, Драма, кри ...
  • Поймай толстуху, если сможешь [Театральная версия] / Identity Thief [Theatr ...
  • Место под соснами / The Place Beyond the Pines (Дерек Сиенфрэнс, драма, кри ...
  • Место под соснами / The Place Beyond the Pines (Дерек Сиенфрэнс, Драма, Кри ...
  • Место под соснами / The Place Beyond the Pines (Дерек Сиенфрэнс, драма, кри ...
  • Место под соснами / The Place Beyond the Pines (Дерек Сиенфрэнс, Драма, Кри ...
  • Место под соснами / The Place Beyond the Pines (Дерек Сиенфрэнс, драма, кри ...
  • Место под соснами / The Place Beyond the Pines (Дерек Сиенфрэнс, драма, кри ...
  • Место под соснами / The Place Beyond the Pines (Дерек Сиенфрэнс, драма, кри ...
  • Валентинка / Blue Valentine (Дэрек Сиенфрэнс, драма, мелодрама, 2010) [HDRi ...
  • Похищенная / A Lonely Place to Die (Джулиан Джилби, триллер, криминал, прик ...
  • [Трейлер] Место под соснами / The Place Beyond the Pines (Дерек Сиенфрэнс, ...
  • Mylene Farmer / Du Temps [2011, Pop, HDTVRip]
  • Mylene Farmer / Bleu Noir [2011, Pop, HDTVRip]
  • Информация
    Посетители, находящиеся в группе Гости, не могут оставлять комментарии к данной публикации.