вход на сайт

Имя пользователя :
Пароль :

Восстановление пароля Регистрация
Виолет и Дейзи / Sightseers (Джеффри Флетчер, боевик, триллер, драма, комедия, криминал, 2013) [DVDRip-AVC, Профессиональный (дублированный)]
Рейтинг:
(голосов: 1)



[img]{THEME}/images/logopost.png[/img]



Виолет и Дейзи / Sightseers
«Too much sugar can kill you.»

Год выпуска: 2013
Страна: США
Производство: Magic Violet
Жанр: боевик, триллер, драма, комедия, криминал

Режиссёр: Джеффри Флетчер
В ролях: Сирша Ронан, Алексис Бледел, Джеймс Гандольфини, Марианн Жан-Баптист, Дэнни Трехо, Татьяна Маслани, Джон Вентимилья, Стю «Ладж» Райли, Невилл Арчамбо, Кристофер Джон Гомбос

Перевод: Профессиональный (дублированный)
Субтитры: Отсутствуют

Описание: Две подружки — Фиалка и Маргаритка — плевать хотели на всякие там законы и правила. Если они чего-нибудь хотят, то обязательно это получат, даже если ради этого придется кого-нибудь убить. Кстати, именно такой способ заработать кажется девчонкам довольно простым — но до поры до времени…



Релиз:
Автор рипа: avproh



Качество: DVDRip-AVC | исх.Sightseers.DVD5 R5
Продолжительность: 01:24:32

Формат: MKV
Видео кодек: x.264
Аудио кодек: AC3
Видео: [email protected] (16:9), 25.000 fps, H264 ~ 2080 kbps avg, 0.201 bit/pixel
Аудио: 48 kHz, AC3 Dolby Digital, 3/2 (L,C,R,l,r) + LFE ch, ~256 kbps avg

Премьера (мир): 15 сентября 2011
Премьера (РФ): 27 июня 2013, «Парадиз»

Media Info ▼Общее
Полное имя : Violet.i.Deyzi.2013.P.DVDRip-AVC_[Youtracker]_by_avproh.mkv
Формат : Matroska
Версия формата : Version 2
Размер файла : 1,45 Гбайт
Продолжительность : 1 ч. 24 м.
Общий поток : 2464 Кбит/сек
Дата кодирования : UTC 2013-07-27 21:39:49
Программа кодирования : mkvmerge v5.0.1 (Es ist Sommer) built on Nov 6 2011 16:23:40
Библиотека кодирования : libebml v1.2.2 + libmatroska v1.3.0

Видео
Идентификатор : 1
Формат : AVC
Формат/Информация : Advanced Video Codec
Профиль формата : [email protected]
Параметр CABAC формата : Да
Параметр ReFrames формата : 11 кадров
Идентификатор кодека : V_MPEG4/ISO/AVC
Продолжительность : 1 ч. 24 м.
Битрейт : 2080 Кбит/сек
Ширина : 720 пикселей
Высота : 574 пикселя
Соотношение сторон : 16:9
Режим частоты кадров : Постоянный
Частота кадров : 25,000 кадров/сек
Цветовое пространство : YUV
Субдискретизация насыщенности : 4:2:0
Битовая глубина : 8 бит
Тип развёртки : Прогрессивная
Бит/(Пиксели*Кадры) : 0.201
Размер потока : 1,20 Гбайт (82%)
Библиотека кодирования : x264 core 130 r2273 b3065e6
Настройки программы : cabac=1 / ref=11 / deblock=1:-2:-1 / analyse=0x3:0x113 / me=umh / subme=9 / psy=1 / psy_rd=1.00:0.20 / mixed_ref=1 / me_range=32 / chroma_me=1 / trellis=1 / 8x8dct=1 / cqm=0 / deadzone=21,11 / fast_pskip=0 / chroma_qp_offset=-3 / threads=9 / lookahead_threads=1 / sliced_threads=0 / nr=0 / decimate=0 / interlaced=0 / bluray_compat=0 / constrained_intra=0 / bframes=8 / b_pyramid=2 / b_adapt=2 / b_bias=0 / direct=3 / weightb=1 / open_gop=0 / weightp=2 / keyint=250 / keyint_min=25 / scenecut=40 / intra_refresh=0 / rc_lookahead=60 / rc=2pass / mbtree=1 / bitrate=2080 / ratetol=1.0 / qcomp=0.60 / qpmin=0 / qpmax=69 / qpstep=4 / cplxblur=20.0 / qblur=0.5 / ip_ratio=1.40 / aq=1:1.00
Default : Да
Forced : Нет

Аудио
Идентификатор : 2
Формат : AC-3
Формат/Информация : Audio Coding 3
Расширение режима : CM (complete main)
Параметр Endianness формата : Big
Идентификатор кодека : A_AC3
Продолжительность : 1 ч. 24 м.
Вид битрейта : Постоянный
Битрейт : 384 Кбит/сек
Каналы : 6 каналов
Расположение каналов : Front: L C R, Side: L R, LFE
Частота : 48,0 КГц
Битовая глубина : 16 бит
Метод сжатия : С потерями
Размер потока : 232 Мбайт (16%)
Default : Да
Forced : Нет







146bd07c9fead2cf006fe1c7442346595c28ed9cВиолет и Дейзи / Sightseers (Джеффри Флетчер, боевик, триллер, драма, комедия, криминал, 2013) [DVDRip-AVC, Профессиональный (дублированный)] Виолет и Дейзи / Sightseers (Джеффри Флетчер, боевик, триллер, драма, комедия, криминал, 2013) [DVDRip-AVC, Профессиональный (дублированный)] " />

Аплоадер: Админ, дата: 28-07-2013, 13:02, торрент скачан: 359 раз

Понравилась раздача? Посмотрите эти:
  • Виолет и Дейзи / Sightseers (Джеффри Флетчер, боевик, триллер, драма, комед ...
  • Погнали! / Getaway (Кортни Соломон, боевик, криминал, 2013) [BDRip 1080p, П ...
  • 11.6 / 11.6 (Филипп Годо, Драма, триллер, криминал, 2013) [BDRip-AVC, Профе ...
  • Околофутбола (Антон Борматов, драма, криминал, 2013) [DVDRip-AVC, Не требуе ...
  • Мальчишник: Часть III / The Hangover Part III (Тодд Филлипс, комедия, 2013) ...
  • Виолет и Дейзи / Violet & Daisy (Джеффри Флетчер, драма, криминал, 2013) [H ...
  • Интимные места (Наталья Меркулова, Алексей Чупов, драма, мелодрама, 2013) [ ...
  • Заклятие / The Conjuring (Джеймс Ван, ужасы, триллер, 2013) [BDRip 720р, Ду ...
  • Заклятие / The Conjuring (Джеймс Ван, ужасы, триллер, 2013) [BDRip 1080p, Д ...
  • Лавлэйс / Lovelace (Роб Эпштейн, Джеффри Фридман, драма, биография, 2013) [ ...
  • Марафон (Карен Оганесян, комедия, 2013) [DVDRip-AVC, Не требуется]
  • Незнакомец внутри / The Stranger Within (Adam Neutzsky-Wulff, триллер, 2013 ...
  • Кодовое имя «Джеронимо» / Seal Team Six: The Raid on Osama Bin Laden (Джон ...
  • Поймай толстуху, если сможешь / Identity Thief [Theatrical Cut] (Сет Гордон ...
  • Виолет и Дейзи / Sightseers (Джеффри Флетчер, боевик, триллер, драма, комед ...
  • Виолет и Дейзи / Sightseers (Джеффри Флетчер, боевик, триллер, драма, комед ...
  • Железяки / Yak (Прапас Чолсаранонт, мультфильм, 2012) [DVDRip-AVC, Професси ...
  • Раз! Два! Три! Умри! / Sightseers (Бен Уитли, комедия, 2012) [HDRip-AVC, Пр ...
  • Виолет и Дейзи / Violet & Daisy (Джеффри Флетчер, боевик, триллер, драма, к ...
  • Перелом / Fracture (Грегори Хоблит, Триллер, драма, криминал, детектив, 200 ...
  • Ангелы Чарли / Charlies Angels (МакДжи, Боевик, триллер, комедия, криминал, ...
  • 21 и больше / 21 & Over (Джон Лукас, Скотт Мур, комедия, 2013) [DVDRip-AVC, ...
  • Маньяк / Maniac (Франк Халфун, ужасы, триллер, криминал, 2012) [DVDRip-AVC, ...
  • Суррогат / The Sessions (Бен Луин, Драма, 2012) [BDRip-AVC, Профессиональны ...
  • Чемпионат Англии 2012-2013 / 25-й тур / Обзор / Суббота / BBC Sport [2013 г ...
  • Информация
    Посетители, находящиеся в группе Гости, не могут оставлять комментарии к данной публикации.