вход на сайт

Имя пользователя :
Пароль :

Восстановление пароля Регистрация
Железяки / Yak (Прапас Чолсаранонт, мультфильм, 2012) [DVDRip-AVC, Профессиональный (дублированный)]
Рейтинг:
(голосов: 1)



[img]{THEME}/images/logopost.png[/img]



Железяки / Yak
«Дружба без памяти»

Год выпуска: 2012
Страна: Таиланд
Производство: Work Point Entertainment
Жанр: мультфильм

Режиссёр: Прапас Чолсаранонт
В ролях: Баврибун Чанреанг, Сантисук Промсири, Удом Таепханит, Керрисак Удомнак

Перевод: Профессиональный (дублированный)
Субтитры: Отсутствуют

Описание: Вернувшись к жизни после долгих лет сна, роботы Здоровяк и Микро с удивлением обнаруживают, что их тела прочно соединены крепкой цепью. Увы, время стерло им память, и теперь они вынуждены вдвоем отправиться в трудное и опасное путешествие, чтобы вновь обрести свободу. Долгие странствия, наполненные удивительными приключениями, трудными испытаниями и великими подвигами, превращают наших героев в настоящих друзей. Но их дружбе предстоит пройти еще одно, самое главное испытание…



Релиз:
Автор рипа: avproh



Качество: DVDRip-AVC | исх.Yak.DVD5 R5
Продолжительность: 01:33:08

Формат: MKV
Видео кодек: x.264
Аудио кодек: AC3
Видео: [email protected] (1.85:1), 25.000 fps, H264 ~ 1980 kbps avg, 0.199 bit/pixel
Аудио: 48 kHz, AC3 Dolby Digital, 3/2 (L,C,R,l,r) + LFE ch, ~256 kbps avg

Премьера (мир): 4 октября 2012
Премьера (РФ): 27 июня 2013, «West»

Media Info ▼Общее
Полное имя : Zhelezyaki.2012.D.DVDRip-AVC_[Youtracker]_by_avproh.mkv
Формат : Matroska
Версия формата : Version 2
Размер файла : 1,46 Гбайт
Продолжительность : 1 ч. 33 м.
Общий поток : 2237 Кбит/сек
Дата кодирования : UTC 2013-07-27 09:32:32
Программа кодирования : mkvmerge v5.0.1 (Es ist Sommer) built on Nov 6 2011 16:23:40
Библиотека кодирования : libebml v1.2.2 + libmatroska v1.3.0

Видео
Идентификатор : 1
Формат : AVC
Формат/Информация : Advanced Video Codec
Профиль формата : [email protected]
Параметр CABAC формата : Да
Параметр ReFrames формата : 11 кадров
Идентификатор кодека : V_MPEG4/ISO/AVC
Продолжительность : 1 ч. 33 м.
Битрейт : 1980 Кбит/сек
Ширина : 720 пикселей
Высота : 552 пикселя
Соотношение сторон : 1,85:1
Режим частоты кадров : Постоянный
Частота кадров : 25,000 кадров/сек
Цветовое пространство : YUV
Субдискретизация насыщенности : 4:2:0
Битовая глубина : 8 бит
Тип развёртки : Прогрессивная
Бит/(Пиксели*Кадры) : 0.199
Размер потока : 1,26 Гбайт (87%)
Библиотека кодирования : x264 core 130 r2273 b3065e6
Настройки программы : cabac=1 / ref=11 / deblock=1:-2:-1 / analyse=0x3:0x113 / me=umh / subme=9 / psy=1 / psy_rd=1.00:0.20 / mixed_ref=1 / me_range=32 / chroma_me=1 / trellis=1 / 8x8dct=1 / cqm=0 / deadzone=21,11 / fast_pskip=0 / chroma_qp_offset=-3 / threads=9 / lookahead_threads=1 / sliced_threads=0 / nr=0 / decimate=0 / interlaced=0 / bluray_compat=0 / constrained_intra=0 / bframes=8 / b_pyramid=2 / b_adapt=2 / b_bias=0 / direct=3 / weightb=1 / open_gop=0 / weightp=2 / keyint=250 / keyint_min=25 / scenecut=40 / intra_refresh=0 / rc_lookahead=60 / rc=2pass / mbtree=1 / bitrate=1980 / ratetol=1.0 / qcomp=0.60 / qpmin=0 / qpmax=69 / qpstep=4 / cplxblur=20.0 / qblur=0.5 / ip_ratio=1.40 / aq=1:1.00
Default : Да
Forced : Нет

Аудио
Идентификатор : 2
Формат : AC-3
Формат/Информация : Audio Coding 3
Расширение режима : CM (complete main)
Параметр Endianness формата : Big
Идентификатор кодека : A_AC3
Продолжительность : 1 ч. 33 м.
Вид битрейта : Постоянный
Битрейт : 256 Кбит/сек
Каналы : 6 каналов
Расположение каналов : Front: L C R, Side: L R, LFE
Частота : 48,0 КГц
Битовая глубина : 16 бит
Метод сжатия : С потерями
Размер потока : 171 Мбайт (11%)
Default : Да
Forced : Нет







1b7191fc24aca181dcbad4ed97f97de2f5d8501cЖелезяки / Yak (Прапас Чолсаранонт, мультфильм, 2012) [DVDRip-AVC, Профессиональный (дублированный)] Железяки / Yak (Прапас Чолсаранонт, мультфильм, 2012) [DVDRip-AVC, Профессиональный (дублированный)] " />

Аплоадер: Админ, дата: 28-07-2013, 02:15, торрент скачан: 359 раз

Понравилась раздача? Посмотрите эти:
  • Одноклассники 2 / Grown Ups 2 (Деннис Дуган, Комедия, 2013) [BDRip-AVC, Про ...
  • Погнали! / Getaway (Кортни Соломон, боевик, криминал, 2013) [BDRip 1080p, П ...
  • Околофутбола (Антон Борматов, драма, криминал, 2013) [DVDRip-AVC, Не требуе ...
  • Мальчишник: Часть III / The Hangover Part III (Тодд Филлипс, комедия, 2013) ...
  • Интимные места (Наталья Меркулова, Алексей Чупов, драма, мелодрама, 2013) [ ...
  • Заклятие / The Conjuring (Джеймс Ван, ужасы, триллер, 2013) [BDRip 720р, Ду ...
  • Заклятие / The Conjuring (Джеймс Ван, ужасы, триллер, 2013) [BDRip 1080p, Д ...
  • Марафон (Карен Оганесян, комедия, 2013) [DVDRip-AVC, Не требуется]
  • Незнакомец внутри / The Stranger Within (Adam Neutzsky-Wulff, триллер, 2013 ...
  • Филадельфия / Philadelphia (Джонатан Демме, Драма, 1993) [BDRip-AVC, Профес ...
  • Поймай толстуху, если сможешь / Identity Thief [Theatrical Cut] (Сет Гордон ...
  • Железяки / Yak (Прапас Чолсаранонт, мультфильм, 2012) [DVDRip, Профессионал ...
  • Железяки / Yak (Прапас Чолсаранонт, мультфильм, 2012) [DVDRip, Профессионал ...
  • Виолет и Дейзи / Sightseers (Джеффри Флетчер, боевик, триллер, драма, комед ...
  • Раз! Два! Три! Умри! / Sightseers (Бен Уитли, комедия, 2012) [HDRip-AVC, Пр ...
  • Железяки / Yak (Прапас Чолсаранонт, мультфильм, 2012) [DVDRip-AVC, Дубляж]
  • Ворон / The Raven (Джеймс МакТиг, Триллер, детектив, 2012) [BDRip 1080p, Ду ...
  • Даю год / I Give It a Year (Дэн Мазер, мелодрама, комедия, 2012) [BDRip-AVC ...
  • Огонь Кристиана Лубутена 3D / FEU: Crazy Horse Paris (Бруно Халлин, докумен ...
  • 21 и больше / 21 & Over (Джон Лукас, Скотт Мур, комедия, 2013) [DVDRip-AVC, ...
  • Маньяк / Maniac (Франк Халфун, ужасы, триллер, криминал, 2012) [DVDRip-AVC, ...
  • Суррогат / The Sessions (Бен Луин, Драма, 2012) [BDRip-AVC, Профессиональны ...
  • Чемпионат Англии 2012-2013 / 25-й тур / Обзор / Суббота / BBC Sport [2013 г ...
  • Скрат: Потерянный орех / Scrat: Gone Nutty (Карлос Салдана, короткометражка ...
  • Лоракс: Серенада / The Lorax: Serenade (Кайл Балда, мультфильм, комедия, му ...
  • Информация
    Посетители, находящиеся в группе Гости, не могут оставлять комментарии к данной публикации.