вход на сайт

Имя пользователя :
Пароль :

Восстановление пароля Регистрация
Я очень возбужден / Los amantes pasajeros (Педро Альмодовар, Комедия, 2013) [BDRip-AVC, Профессиональный (дублированный)]
Рейтинг:
(голосов: 1)



[img]{THEME}/images/logopost.png[/img]



Я очень возбужден / Los amantes pasajeros
«Всё прекрасно! Падаем...»

Год выпуска: 2013
Страна: Испания
Производство: El Deseo S.A.
Жанр: Комедия

Режиссёр: Педро Альмодовар
В ролях: Пенелопа Крус, Антонио Бандерас, Антонио де ла Торре, Уго Силва, Мигель Анхель Сильвестре, Хавьер Камара, Карлос Аресес

Перевод: Профессиональный (дублированный)
Субтитры: Отсутствуют

Описание: Рейс лайнера, совершающего перелет в Мексику, начался как обычно: пассажиры пристегнули ремни, а командир корабля, включив автопилот, спокойно уснул. Но прямо над океаном оказалось, что самолет неисправен, исчезает интернет, и все гаджеты разом выходят из строя. Всех охватывает страх, ужас, отчаяние. Беспомощные пассажиры и экипаж, оказавшись пред лицом гибели, наконец-то должны стать сами собой. Так что несчастным на борту падающего самолета не остается ничего, как только петь и танцевать вслед за веселыми стюардами.



Качество: BDRip-AVC | Сэмпл | исх.Los amantes pasajeros.Blu-ray
Продолжительность: 01:30:19

Формат: MKV
Видео кодек: x.264
Аудио кодек: AC3
Видео: х.264, 1060x572 (1.85:1), 23.976 fps, 3024 Кbps, 0.208 bit/pixel
Аудио: 48 kHz, AC3 Dolby Digital, 3/2 (L,C,R,l,r) + LFE ch, 448.00 kbps

Премьера (мир): 8 марта 2013
Премьера (РФ): 23 мая 2013, «Парадиз»

Media Info ▼Общее
Уникальный идентификатор : 183527801530322013768620355221609202158 (0x8A122B3A5FFA40D5B2BAA8C116B341EE)
Полное имя : Ya.Ochen.Vozbujdjon.2013.RUS.BDRip.x264.-HELLYWOOD.mkv
Формат : Matroska
Версия формата : Version 4 / Version 2
Размер файла : 2,19 Гбайт
Продолжительность : 1 ч. 30 м.
Общий поток : 3473 Кбит/сек
Название фильма : -=POTROKS=-
Дата кодирования : UTC 2013-07-21 19:50:24
Программа кодирования : mkvmerge v5.9.0 (On The Loose) built on Dec 15 2012 16:39:58
Библиотека кодирования : libebml v1.3.0 + libmatroska v1.4.0

Видео
Идентификатор : 1
Формат : AVC
Формат/Информация : Advanced Video Codec
Профиль формата : [email protected]
Параметр CABAC формата : Да
Параметр ReFrames формата : 12 кадров
Идентификатор кодека : V_MPEG4/ISO/AVC
Продолжительность : 1 ч. 30 м.
Битрейт : 3024 Кбит/сек
Ширина : 1060 пикселей
Высота : 572 пикселя
Соотношение сторон : 1,85:1
Режим частоты кадров : Постоянный
Частота кадров : 23,976 кадра/сек
Цветовое пространство : YUV
Субдискретизация насыщенности : 4:2:0
Битовая глубина : 8 бит
Тип развёртки : Прогрессивная
Бит/(Пиксели*Кадры) : 0.208
Размер потока : 1,86 Гбайт (85%)
Заголовок : Los amantes pasajeros
Библиотека кодирования : x264 core 130 r2273 b3065e6
Настройки программы : cabac=1 / ref=12 / deblock=1:-2:-2 / analyse=0x3:0x133 / me=umh / subme=11 / psy=1 / psy_rd=1.07:0.01 / mixed_ref=1 / me_range=32 / chroma_me=1 / trellis=2 / 8x8dct=1 / cqm=0 / deadzone=21,11 / fast_pskip=0 / chroma_qp_offset=-3 / threads=9 / lookahead_threads=2 / sliced_threads=0 / nr=0 / decimate=1 / interlaced=0 / bluray_compat=0 / constrained_intra=0 / bframes=13 / b_pyramid=2 / b_adapt=2 / b_bias=0 / direct=3 / weightb=1 / open_gop=0 / weightp=2 / keyint=240 / keyint_min=23 / scenecut=40 / intra_refresh=0 / rc_lookahead=150 / rc=2pass / mbtree=1 / bitrate=3024 / ratetol=1.0 / qcomp=0.70 / qpmin=0 / qpmax=69 / qpstep=4 / cplxblur=20.0 / qblur=0.5 / vbv_maxrate=20000 / vbv_bufsize=20000 / nal_hrd=none / ip_ratio=1.35 / aq=1:0.70
Язык : Spanish
Default : Да
Forced : Нет

Аудио
Идентификатор : 2
Формат : AC-3
Формат/Информация : Audio Coding 3
Расширение режима : CM (complete main)
Параметр Endianness формата : Big
Идентификатор кодека : A_AC3
Продолжительность : 1 ч. 30 м.
Вид битрейта : Постоянный
Битрейт : 448 Кбит/сек
Каналы : 6 каналов
Расположение каналов : Front: L C R, Side: L R, LFE
Частота : 48,0 КГц
Битовая глубина : 16 бит
Метод сжатия : С потерями
Размер потока : 289 Мбайт (13%)
Заголовок : Dub | DD 5.1 @ 448 kbps
Язык : Russian
Default : Да
Forced : Да
ae92434b8ab83957ff2319d7d626bbbc763317cbЯ очень возбужден / Los amantes pasajeros (Педро Альмодовар, Комедия, 2013) [BDRip-AVC, Профессиональный (дублированный)] Я очень возбужден / Los amantes pasajeros (Педро Альмодовар, Комедия, 2013) [BDRip-AVC, Профессиональный (дублированный)] " />

Аплоадер: Админ, дата: 22-07-2013, 02:46, торрент скачан: 359 раз

Понравилась раздача? Посмотрите эти:
  • Одноклассники 2 / Grown Ups 2 (Деннис Дуган, Комедия, 2013) [BDRip-AVC, Про ...
  • Погнали! / Getaway (Кортни Соломон, боевик, криминал, 2013) [BDRip-AVC, Про ...
  • Мальчишник: Часть III / The Hangover Part III (Тодд Филлипс, комедия, 2013) ...
  • Заклятие / The Conjuring (Джеймс Ван, ужасы, триллер, 2013) [BDRip 1080p, Д ...
  • Невероятный Бёрт Уандерстоун / The Incredible Burt Wonderstone (Дон Скардин ...
  • Тревожный вызов / The Call (Брэд Андерсон, Триллер, 2013) [BDRip-AVC, Профе ...
  • Никто не выжил / No One Lives (Рюхэй Китамура, Триллер, ужасы, 2012) [BDRip ...
  • Летучий отряд Скотланд-Ярда / The Sweeney (Ник Лав, Боевик, драма, криминал ...
  • Невероятный Бёрт Уандерстоун / The Incredible Burt Wonderstone (Дон Скардин ...
  • Поймай толстуху, если сможешь / Identity Thief [Theatrical Cut] (Сет Гордон ...
  • Порочные игры / Stoker (Пак Чхан Ук, Триллер, драма, детектив, 2013) [BDRip ...
  • Поймай толстуху, если сможешь [Театральная версия] / Identity Thief [Theatr ...
  • Я очень возбужден / Los amantes pasajeros (Педро Альмодовар, комедия, 2013) ...
  • Я очень возбужден / Los amantes pasajeros (Педро Альмодовар, комедия, 2013) ...
  • Я очень возбужден / Los amantes pasajeros (Педро Альмодовар, Комедия, 2013) ...
  • Я очень возбужден / Los amantes pasajeros (Педро Альмодовар, Комедия, 2013) ...
  • Я очень возбужден / Los amantes pasajeros (Педро Альмодовар, Комедия, 2013) ...
  • Я очень возбужден / Los amantes pasajeros (Педро Альмодовар, Комедия, 2013) ...
  • Я очень возбужден / Los amantes pasajeros (Педро Альмодовар, Комедия, 2013) ...
  • Ворон / The Raven (Джеймс МакТиг, Триллер, детектив, 2012) [BDRip 1080p, Ду ...
  • Мама / Mama (Андрес Мускетти, ужасы, фэнтези, триллер, 2013) [BDRip-AVC, Пр ...
  • Даю год / I Give It a Year (Дэн Мазер, мелодрама, комедия, 2012) [BDRip-AVC ...
  • 21 и больше / 21 & Over (Джон Лукас, Скотт Мур, Комедия, 2013) [BDRip-AVC, ...
  • Суррогат / The Sessions (Бен Луин, Драма, 2012) [BDRip-AVC, Профессиональны ...
  • Кожа, в которой я живу / La piel que habito (Педро Альмодовар, триллер, дра ...
  • Информация
    Посетители, находящиеся в группе Гости, не могут оставлять комментарии к данной публикации.