вход на сайт

Имя пользователя :
Пароль :

Восстановление пароля Регистрация
Астрал на улице Арлетт / 388 Arletta Avenue (Рэндолл Коул, Триллер, 2011) [BDRip, Профессиональный (многоголосый, закадровый), Sub]
Рейтинг:
(голосов: 1)



[img]{THEME}/images/logopost.png[/img]



Астрал на улице Арлетт / 388 Arletta Avenue
«У вас когда-то было ощущение, что за вами наблюдают?»

Год выпуска: 2011
Страна:Канада
Производство: Copper Heart Entertainment
Жанр: Триллер

Режиссёр: Рэндолл Коул
В ролях: Ник Стал, Миа Киршнер, Девон Сава, Аарон Абрамс, Шарлотта Салливан, Криста Бриджес, Грэхэм Эбби, Джерри Ди, Кайл Лабайн, Дэниэл Левек...

Перевод: Профессиональный (многоголосый, закадровый)
Субтитры: русский

Описание: Неизвестный ведет наблюдение за молодой парой 24 часа в сутки при помощи размещенных в их доме скрытых камер. Вскоре герои начинают подозревать неладное и узнают о слежке. С этого момента кошмар ситуации только нарастает…



Качество: BDRip | Сэмпл
Продолжительность: 01:26:22 час.

Формат: AVI
Видео кодек: XviD
Аудио кодек: AC3
Видео: 720x400 (16:9), 23,976 fps, XviD build 65 ~1 957 kbps avg, 0.283 bit/pixel
Аудио: 48 kHz, AC3, 3/2 (L,C,R,l,r) + LFE ch, ~448.00 kbps avg - (MVO)

Дата премьеры (мир): 11 сентября 2011
Дата премьеры (РФ): 20 июня 2013, «Top Film Distribution»

MediaInfo ▼Общее
Полное имя : Astral.na.ulitse.Arlett.2011.P.BDRp.avi
Формат : AVI
Формат/Информация : Audio Video Interleave
Размер файла : 1,46 Гбайт
Продолжительность : 1 ч. 26 м.
Общий поток : 2415 Кбит/сек
Программа кодирования : VirtualDubModRus 1.5.10.2 (build 2542/release)
Библиотека кодирования : VirtualDubMod build 2542/release

Видео
Идентификатор : 0
Формат : MPEG-4 Visual
Профиль формата : Advanced [email protected]
Параметр BVOP формата : 1
Параметр QPel формата : Нет
Параметр GMC формата : Без точки перехода
Параметр матрицы формата : Выборочная
Идентификатор кодека : XVID
Идентификатор кодека/Подсказка : XviD
Продолжительность : 1 ч. 26 м.
Битрейт : 1957 Кбит/сек
Ширина : 720 пикселей
Высота : 400 пикселей
Соотношение сторон : 16:9
Частота кадров : 23,976 кадра/сек
Цветовое пространство : YUV
Субдискретизация насыщенности : 4:2:0
Битовая глубина : 8 бит
Тип развёртки : Прогрессивная
Метод сжатия : С потерями
Бит/(Пиксели*Кадры) : 0.283
Размер потока : 1,18 Гбайт (81%)
Библиотека кодирования : XviD 65

Аудио
Идентификатор : 1
Формат : AC-3
Формат/Информация : Audio Coding 3
Расширение режима : CM (complete main)
Параметр Endianness формата : Big
Идентификатор кодека : 2000
Продолжительность : 1 ч. 26 м.
Вид битрейта : Постоянный
Битрейт : 448 Кбит/сек
Каналы : 6 каналов
Расположение каналов : Front: L C R, Side: L R, LFE
Частота : 48,0 КГц
Битовая глубина : 16 бит
Метод сжатия : С потерями
Размер потока : 277 Мбайт (19%)
Выравнивание : Разделение по промежуткам
Продолжительность промежутка : 42 мс. (1,00 видеокадр)
Время предзагрузки промежутка : 500 мс.





4948bcbf18047ccca0051a8ce6d99859292640f3Астрал на улице Арлетт / 388 Arletta Avenue (Рэндолл Коул, Триллер, 2011) [BDRip, Профессиональный (многоголосый, закадровый), Sub] Астрал на улице Арлетт / 388 Arletta Avenue (Рэндолл Коул, Триллер, 2011) [BDRip, Профессиональный (многоголосый, закадровый), Sub] " />

Аплоадер: Админ, дата: 21-07-2013, 23:32, торрент скачан: 359 раз

Понравилась раздача? Посмотрите эти:
  • Одноклассники 2 / Grown Ups 2 (Деннис Дуган, Комедия, 2013) [BDRip, Професс ...
  • Кровью и потом: Анаболики / Pain & Gain (Майкл Бэй, криминал, комедия, трил ...
  • Слежка / The Letter (Джей Ананья, Триллер, драма, 2012) [DVDRip, Профессион ...
  • Миллион для чайников / The Brass Teapot (Рамаа Мосли, Фэнтези, триллер, ком ...
  • Миллион для чайников / The Brass Teapot (Рамаа Мосли, Фэнтези, триллер, ком ...
  • Миллион для чайников / The Brass Teapot (Рамаа Мосли, Фэнтези, триллер, ком ...
  • Астрал на улице Арлетт / 388 Arletta Avenue (Рэндолл Коул, Триллер, 2011) [ ...
  • Астрал на улице Арлетт / 388 Arletta Avenue (Рэндолл Коул, Триллер, 2011) [ ...
  • Астрал на улице Арлетт / 388 Arletta Avenue (Рэндолл Коул, триллер, 2011) [ ...
  • Секс и ничего лишнего / My Awkward Sexual Adventure (Шон Гэррити, Комедия, ...
  • Глушь / Resurrection County (Матт Зеттел, Ужасы,триллер, 2008) [DVDRip, Про ...
  • Жил-был тигр / Ek Tha Tiger (Кабир Кхан, боевик, триллер , 2012) [ HDRip, ...
  • Легенда о МорДу / The Legend of MorDu (Брайан Ларсен, Короткометражный, ска ...
  • Отбой / Taps (Харольд Беккер, Драма, 1981) [DVDRip, Профессиональный (много ...
  • Путешествие на дно моря / Voyage to the Bottom of the Sea (Ирвин Аллен / I ...
  • Кажется, я люблю свою жену / I Think I Love My Wife (Крис Рок, Драма, мелод ...
  • Улица Арлетт 388 / 388 Arletta Avenue (Рэндолл Коул, Триллер, 2011) [HDRip, ...
  • Улица Арлетт 388 / 388 Arletta Avenue (Рэндолл Коул, Триллер, 2011) [HDRip, ...
  • Боец из трущоб / Gutter King (Кейт Алан Моррис / Keith Alan Morris, боевик, ...
  • Приключения Тинтина: Тайна Единорога / The Adventures of Tintin (Стивен Спи ...
  • Гениальный папа / Father of Invention (Трент Купер, Драма, комедия, 2010) [ ...
  • Жизнь за гранью / After.Life (Агнешка Войтович-Восло, Ужасы, триллер, драм ...
  • Застенок / The Jailhouse (Билли Льюис, Ужасы, Триллер, Детектив, 2009) [DV ...
  • Глаз шторма / The Eye of the Storm (Фред Скеписи, Драма, 2011) [HDRip, Проф ...
  • Сдохни, Джон Такер / John Tucker Must Die (Бетти Томас, мелодрама, комедия, ...
  • Информация
    Посетители, находящиеся в группе Гости, не могут оставлять комментарии к данной публикации.