вход на сайт

Имя пользователя :
Пароль :

Восстановление пароля Регистрация
Великий мастер / Yi dai zong shi (Вонг Кар-Вай, боевик, драма, биография, 2013) [BDRip-AVC, Профессиональный (полное дублирование),Оригинал(Китайский)]
Рейтинг:
(голосов: 1)



[img]{THEME}/images/logopost.png[/img]



Великий мастер / Yi dai zong shi


Год выпуска: 2013
Страна: Гонконг, Китай, Франция
Производство: ACHAB Film, Emergency Exit Pictures, Wiseacre Films
Жанр: Боевик, драма, биография

Режиссёр: Вонг Кар-Вай
В ролях:Чжан Цзыи, Тони Люн Чу Вай, Кунг Ле, Сон Хё-гю, Чжан Чжэнь, Юэнь Ву-Пин, Сю-Люн Люн, Чеунг-Ян Юэнь, Элвис Цуй, Менг Ло

Перевод: Профессиональный (полное дублирование),Оригинал(Китайский)
Субтитры: нет

Описание: Основатель старейшей Школы боевых искусств намерен уйти на покой и передать дела достойному преемнику. Но самый лучший его ученик вынашивает куда более амбициозные планы — он намерен объединить все разрозненные школы в одну. С этой целью он вызывает на поединок лидера каждой школы и, одерживая победу раз за разом, объединяет все школы. Последней остается школа его умершего учителя, отстоять память которого на поединок выходит его дочь, тайно влюбленная в своего соперника…Премьера (мир): 8 января 2013
Премьера (РФ): 30 мая 2013, «Каравелла DDC»

Качество: BDRip-AVC / Сэмпл
Продолжительность: 02:02:49

Формат: MKV
Видео кодек: H.264
Аудио кодек: AC3
Видео: 1108x494 (2,25:1), 24 fps, H.264, ~2634 Кbps, 0.201 bit/pixel
Аудио#1: 48 kHz, AC3 Dolby Digital, 3/2 (L,C,R,l,r) + LFE ch, 384.00 kbps | RUS
Аудио#2: 48 kHz, AC3 Dolby Digital, 3/2 (L,C,R,l,r) + LFE ch, 384.00 kbps | CHI
"MediaInfo" ▼Общее
Полное имя : Velikij.Master.2013.D.BDRip.x264.potroks.mkv
Формат : Matroska
Версия формата : Version 4 / Version 2
Размер файла : 2,91 Гбайт
Продолжительность : 2 ч. 2 м.
Общий поток : 3395 Кбит/сек
Название фильма : -=POTROKS=-
Дата кодирования : UTC 2013-07-06 16:02:06
Программа кодирования : mkvmerge v5.9.0 (On The Loose) built on Dec 15 2012 16:39:58
Библиотека кодирования : libebml v1.3.0 + libmatroska v1.4.0

Видео
Идентификатор : 1
Формат : AVC
Формат/Информация : Advanced Video Codec
Профиль формата : [email protected]
Параметр CABAC формата : Да
Параметр ReFrames формата : 14 кадров
Идентификатор кодека : V_MPEG4/ISO/AVC
Продолжительность : 2 ч. 2 м.
Битрейт : 2634 Кбит/сек
Ширина : 1108 пикселей
Высота : 494 пикселя
Соотношение сторон : 2,25:1
Режим частоты кадров : Постоянный
Частота кадров : 24,000 кадра/сек
Цветовое пространство : YUV
Субдискретизация насыщенности : 4:2:0
Битовая глубина : 8 бит
Тип развёртки : Прогрессивная
Бит/(Пиксели*Кадры) : 0.201
Размер потока : 2,20 Гбайт (75%)
Библиотека кодирования : x264 core 125 r2208 d9d2288
Настройки программы : cabac=1 / ref=14 / deblock=1:-2:-2 / analyse=0x3:0x133 / me=umh / subme=11 / psy=1 / psy_rd=1.03:0.00 / mixed_ref=1 / me_range=32 / chroma_me=1 / trellis=2 / 8x8dct=1 / cqm=0 / deadzone=21,11 / fast_pskip=0 / chroma_qp_offset=-2 / threads=9 / lookahead_threads=1 / sliced_threads=0 / nr=0 / decimate=1 / interlaced=0 / bluray_compat=0 / constrained_intra=0 / bframes=15 / b_pyramid=2 / b_adapt=2 / b_bias=0 / direct=3 / weightb=1 / open_gop=0 / weightp=2 / keyint=240 / keyint_min=24 / scenecut=40 / intra_refresh=0 / rc_lookahead=150 / rc=2pass / mbtree=1 / bitrate=2634 / ratetol=1.0 / qcomp=0.70 / qpmin=0 / qpmax=69 / qpstep=4 / cplxblur=20.0 / qblur=0.5 / vbv_maxrate=20000 / vbv_bufsize=25000 / nal_hrd=none / ip_ratio=1.35 / aq=1:0.80
Язык : Chinese
Default : Да
Forced : Нет

Аудио #1
Идентификатор : 2
Формат : AC-3
Формат/Информация : Audio Coding 3
Расширение режима : CM (complete main)
Параметр Endianness формата : Big
Идентификатор кодека : A_AC3
Продолжительность : 2 ч. 2 м.
Вид битрейта : Постоянный
Битрейт : 384 Кбит/сек
Каналы : 6 каналов
Расположение каналов : Front: L C R, Side: L R, LFE
Частота : 48,0 КГц
Битовая глубина : 16 бит
Метод сжатия : С потерями
Размер потока : 337 Мбайт (11%)
Заголовок : Dub | DD 5.1 @ 384 kbps - R5
Язык : Russian
Default : Да
Forced : Да

Аудио #2
Идентификатор : 3
Формат : AC-3
Формат/Информация : Audio Coding
1498a253d6de918dd1f3a725b1eb6453d3a01338Великий мастер / Yi dai zong shi (Вонг Кар-Вай, боевик, драма, биография, 2013) [BDRip-AVC, Профессиональный (полное дублирование),Оригинал(Китайский)] Великий мастер / Yi dai zong shi (Вонг Кар-Вай, боевик, драма, биография, 2013) [BDRip-AVC, Профессиональный (полное дублирование),Оригинал(Китайский)] " />

Аплоадер: Админ, дата: 7-07-2013, 00:10, торрент скачан: 359 раз

Понравилась раздача? Посмотрите эти:
  • Одноклассники 2 / Grown Ups 2 (Деннис Дуган, Комедия, 2013) [BDRip-AVC, Про ...
  • Погнали! / Getaway (Кортни Соломон, боевик, криминал, 2013) [BDRip-AVC, Про ...
  • Лавлэйс / Lovelace (Роб Эпштейн, Джеффри Фридман, драма, биография, 2013) [ ...
  • Великий мастер / Yi dai zong shi (Вонг Кар-Вай, Боевик, Драма, 2013) [HDRip ...
  • Великий мастер / Yi dai zong shi (Вонг Кар-Вай, Боевик, Драма, 2013) [BDRip ...
  • Никто не выжил / No One Lives (Рюхэй Китамура, Триллер, ужасы, 2012) [BDRip ...
  • Летучий отряд Скотланд-Ярда / The Sweeney (Ник Лав, Боевик, драма, криминал ...
  • Великий мастер / Yi dai zong shi (Вонг Кар-Вай, боевик, драма, биография, 2 ...
  • Великий мастер / Yi dai zong shi (Вонг Кар-Вай, Боевик, драма, 2013) [Blu-r ...
  • Великий мастер / Yi dai zong shi (Вонг Кар-Вай, боевик, драма, 2013) [BDRip ...
  • Великий мастер / Yi dai zong shi (Вонг Кар-Вай, Боевик, драма, 2013) [HDRip ...
  • Порочные игры / Stoker (Пак Чхан Ук, Триллер, драма, детектив, 2013) [BDRip ...
  • Порочные игры / Stoker (Пак Чхан Ук, Триллер, драма, детектив, 2013) [BDRip ...
  • Великий мастер / Yi dai zong shi (Вонг Кар-Вай, Боевик, драма, 2013) [BDRip ...
  • Фантомы / Shutter (Масаюки Очиай, ужасы, триллер, детектив, 2008) [BDRip-AV ...
  • Поймай толстуху, если сможешь [Театральная версия] / Identity Thief [Theatr ...
  • Великий мастер / Yi dai zong shi (Вонг Кар Вэй, Боевик, драма, 2013) [HDRip ...
  • Великий мастер / Yi dai zong shi (Вонг Кар Вэй, Боевик, драма, 2013) [HDRip ...
  • Великий мастер / Yi dai zong shi (Вонг Кар-Вай, боевик, драма, 2013) [HDRip ...
  • Мама / Mama (Андрес Мускетти, ужасы, фэнтези, триллер, 2013) [BDRip-AVC, Пр ...
  • Великий мастер (Великие мастера) / Yi dai zong shi (The Grandmasters) (Вонг ...
  • Даю год / I Give It a Year (Дэн Мазер, мелодрама, комедия, 2012) [BDRip-AVC ...
  • Линкольн / Lincoln (Стивен Спилберг, драма, военный, биография, история, 20 ...
  • [Трейлер] Великие мастера / Yi dai zong shi (Вонг Кар-Вай, боевик, драма, б ...
  • Суррогат / The Sessions (Бен Луин, Драма, 2012) [BDRip-AVC, Профессиональны ...
  • Информация
    Посетители, находящиеся в группе Гости, не могут оставлять комментарии к данной публикации.