вход на сайт

Имя пользователя :
Пароль :

Восстановление пароля Регистрация
Великий мастер / Yi dai zong shi (Вонг Кар-Вай, боевик, драма, биография, 2013) [HDRip, Дубляж]
Рейтинг:
(голосов: 1)



[img]{THEME}/images/logopost.png[/img]



Великий мастер / Yi dai zong shi
«In Martial Arts there is no right or wrong, only the last man standing.»



Год выпуска: 2013
Страна: Гонконг, Китай, Франция
Производство: ACHAB Film, Emergency Exit Pictures, Wiseacre Films
Жанр: боевик, драма, биография

Режиссер: Вонг Кар-Вай
В ролях: Чжан Цзыи, Тони Люн Чу Вай, Кунг Ле, Сон Хё-гю, Чжан Чжэнь, Юэнь Ву-Пин, Сю-Люн Люн, Чеунг-Ян Юэнь, Элвис Цуй, Менг Ло

Перевод: Дубляж
Субтитры: Отсутствуют

Описание: Основатель старейшей Школы боевых искусств намерен уйти на покой и передать дела достойному преемнику. Но самый лучший его ученик вынашивает куда более амбициозные планы — он намерен объединить все разрозненные школы в одну. С этой целью он вызывает на поединок лидера каждой школы и, одерживая победу раз за разом, объединяет все школы. Последней остается школа его умершего учителя, отстоять память которого на поединок выходит его дочь, тайно влюбленная в своего соперника…



Премьера (мир): 8 января 2013
Премьера (РФ): 30 мая 2013, «Каравелла DDC»

МедиаИнфо ▼Text

D:The.Grandmaster.2013.D.HDRip.2100Mb.avi
General
Complete name : D:The.Grandmaster.2013.D.HDRip.2100Mb.avi
Format : AVI
Format/Info : Audio Video Interleave
Format profile : OpenDML
File size : 2.05 GiB
Duration : 2h 10mn
Overall bit rate : 2 254 Kbps
Writing application : VirtualDubMod 1.5.10.2 (build 2540/release)
Writing library : VirtualDubMod build 2540/release
Video #0
ID : 0
Format : MPEG-4 Visual
Format profile : Advanced [email protected]
Format settings, BVOP : Yes
Format settings, QPel : No
Format settings, GMC : No warppoints
Format settings, Matrix : Custom
Codec ID : XVID
Codec ID/Hint : XviD
Duration : 2h 10mn
Bit rate : 1 858 Kbps
Width : 720 pixels
Height : 304 pixels
Display aspect ratio : 2.35:1
Frame rate : 24.000 fps
Color space : YUV
Chroma subsampling : 4:2:0
Bit depth : 8 bits
Scan type : Progressive
Compression mode : Lossy
Bits/(Pixel*Frame) : 0.354
Stream size : 1.69 GiB (82%)
Writing library : XviD 73
Audio #1
ID : 1
Format : AC-3
Format/Info : Audio Coding 3
Mode extension : CM (complete main)
Codec ID : 2000
Duration : 2h 10mn
Bit rate mode : Constant
Bit rate : 384 Kbps
Channel(s) : 6 channels
Channel positions : Front: L C R, Side: L R, LFE
Sampling rate : 48.0 KHz
Bit depth : 16 bits
Compression mode : Lossy
Stream size : 357 MiB (17%)
Alignment : Split accross interleaves
Interleave, duration : 42 ms (1.00 video frame)
Interleave, preload duration : 500 ms



Качество: HDRip
Продолжительность: 02:10:06

Формат: AVI
Видео кодек: XviD
Аудио кодек: AC3
Видео: 720x304 (2.37:1), 24 fps, XviD build 73 ~1863 kbps avg, 0.35 bit/pixel
Аудио: 48 kHz, AC3 Dolby Digital, 3/2 (L,C,R,l,r) + LFE ch, ~384 kbps





7728577f71ac35a04cd4ee9f10426ccbf87e52b7Великий мастер / Yi dai zong shi (Вонг Кар-Вай, боевик, драма, биография, 2013) [HDRip, Дубляж] Великий мастер / Yi dai zong shi (Вонг Кар-Вай, боевик, драма, биография, 2013) [HDRip, Дубляж] " />

Аплоадер: Админ, дата: 4-07-2013, 18:14, торрент скачан: 359 раз

Понравилась раздача? Посмотрите эти:
  • Погнали! / Getaway (Кортни Соломон, Боевик, Криминал, 2013) [HDRip, Професс ...
  • Вирус / Flu (Ким Сон Су, Драма, 2013) [HDTVRip, Любительский (двухголосый з ...
  • Верное дельце / Une pure affaire (Александр Коффре, Боевик, Комедия, Кримин ...
  • Посылка / The Package (Джесси Джонсон, боевик, 2013) [HDRip, Профессиональн ...
  • Великий мастер / Yi dai zong shi (Вонг Кар-Вай, Боевик, Драма, 2013) [HDRip ...
  • Великий мастер / Yi dai zong shi (Вонг Кар-Вай, Боевик, Драма, 2013) [BDRip ...
  • Мёбиус / Mоbius (Эрик Рошан, триллер, драма, 2013) [HDRip, Дублированный + ...
  • [EN] 42 / 42 (Брайан Хелгеленд, Драма, биография, спорт, 2013) [BDRip, Ориг ...
  • Мужество / Wymyk (Грег Зглински, драма, 2011) [DVDRip, Любительский (одного ...
  • 42 / 42 (Брайан Хелгеленд, драма, биография, спорт, 2013) [BDRip, Профессио ...
  • Великий мастер / Yi dai zong shi (Вонг Кар-Вай, Боевик, драма, 2013) [Blu-r ...
  • Великий мастер / Yi dai zong shi (Вонг Кар-Вай, боевик, драма, 2013) [BDRip ...
  • Великий мастер / Yi dai zong shi (Вонг Кар-Вай, Боевик, драма, 2013) [HDRip ...
  • Великий мастер / Yi dai zong shi (Вонг Кар-Вай, Боевик, драма, 2013) [BDRip ...
  • Звук моего голоса / Sound of My Voice (Зал Батманглидж, триллер, драма, 201 ...
  • Великий мастер / Yi dai zong shi (Вонг Кар Вэй, Боевик, драма, 2013) [HDRip ...
  • Великий мастер / Yi dai zong shi (Вонг Кар Вэй, Боевик, драма, 2013) [HDRip ...
  • Великий мастер / Yi dai zong shi (Вонг Кар-Вай, боевик, драма, 2013) [HDRip ...
  • 23:59 / 23:59 (Гилберт Чан, Ужасы, 2011) [HDRip, Любительский (одноголосый ...
  • Великий мастер (Великие мастера) / Yi dai zong shi (The Grandmasters) (Вонг ...
  • [Трейлер] Великие мастера / Yi dai zong shi (Вонг Кар-Вай, боевик, драма, б ...
  • Tank Feat. T.I. & Kris Stephens / Compliments [2012, RnB,Hip-Hop, HDRip]
  • NBA Finals 2012 / Sportscenter / В преддверии 3-ей игры / Viasat Sport [Бас ...
  • Супершторм в Сиэтле / Seattle Superstorm (Джейсон Бурк, фантастика, боевик ...
  • Девушки в опасности / Damsels in Distress (Уит Стиллман, драма, мелодрама, ...
  • Информация
    Посетители, находящиеся в группе Гости, не могут оставлять комментарии к данной публикации.