вход на сайт

Имя пользователя :
Пароль :

Восстановление пароля Регистрация
Воображариум / Imaginaerum (Стобе Харью, Фэнтези, приключения, мюзикл, драма, 2012) [HDRip, Дубляж]
Рейтинг:
(голосов: 1)



[img]{THEME}/images/logopost.png[/img]



Воображариум / Imaginaerum
«Мир, в котором фантазии оживают»

Год выпуска: 2012
Страна: Канада, Финляндия
Производство: Caramel Film, Scene Nation...
Жанр: Фэнтези, приключения, мюзикл, драма

Режиссёр: Стобе Харью
В ролях: Марианн Фарли, Куинн Лорд, Фрэнсис З. МакКарти, Илка Вилли, Джоэнна Нойес, Кеянна Филдинг, Стефани Демерс, Рон Лиа, Хелен Робитейлл, Туомас Холопайнен

Перевод: Дубляж
Субтитры: Отсутствуют

Описание: Кто из нас в детстве не мечтал попасть в волшебную страну? В страну, где все возможно. Где исполняются самые несбыточные мечты, встречаются необыкновенные существа и происходит самое настоящее Волшебство. Теперь ваши мечты могут осуществиться! Не важно сколько вам лет. Не важно верите ли вы в говорящих снеговиков и в то, что люди могут летать. Просто приоткройте эту дверь и перед вами окажется Воображариум, где все возможно.Качество: HDRip | Сэмпл
Продолжительность: 01:25:54 час.

Формат: AVI
Видео кодек: XviD
Аудио кодек: MPEG Layer 3
Видео: 688x288 (2.40:1), 23.976 fps, XviD build 73 ~1094 kbps avg, 0.230 bit/pixel
Аудио: 48 kHz, MPEG Layer 3, 2 ch, ~128.00 kbps avg - (Дубляж)

Дата премьеры (мир): 10 ноября 2012
Дата премьеры (РФ): 6 июня 2013, «Наше Кино»

MediaInfo: ▼General
Complete name : C:Voobrajarium_HDRip.avi
Format : AVI
Format/Info : Audio Video Interleave
File size : 755 MiB
Duration : 1h 25mn
Overall bit rate : 1 232 Kbps
Writing application : VirtualDubMod 1.5.10.3 | (build 2550/release)
Writing library : VirtualDubMod build 2550/release

Video
ID : 0
Format : MPEG-4 Visual
Format profile : Advanced [email protected]
Format settings, BVOP : Yes
Format settings, QPel : No
Format settings, GMC : No warppoints
Format settings, Matrix : Custom
Codec ID : XVID
Codec ID/Hint : XviD
Duration : 1h 25mn
Bit rate : 1 094 Kbps
Width : 688 pixels
Height : 288 pixels
Display aspect ratio : 2.40:1
Frame rate : 23.976 fps
Color space : YUV
Chroma subsampling : 4:2:0
Bit depth : 8 bits
Scan type : Progressive
Compression mode : Lossy
Bits/(Pixel*Frame) : 0.230
Stream size : 671 MiB (89%)
Writing library : XviD 73

Audio
ID : 1
Format : MPEG Audio
Format version : Version 1
Format profile : Layer 3
Codec ID : 55
Codec ID/Hint : MP3
Duration : 1h 25mn
Bit rate mode : Constant
Bit rate : 128 Kbps
Channel count : 2 channels
Sampling rate : 48.0 KHz
Compression mode : Lossy
Stream size : 78.5 MiB (10%)
Alignment : Aligned on interleaves
Interleave, duration : 42 ms (1.00 video frame)
Interleave, preload duration : 504 ms
Writing library : LAME3.99r
Encoding settings : -m s -V 4 -q 2 -lowpass 17 -b 128






07052f523f652616b13dea8ff4a0ebb5fa0c9080Воображариум / Imaginaerum (Стобе Харью, Фэнтези, приключения, мюзикл, драма, 2012) [HDRip, Дубляж] Воображариум / Imaginaerum (Стобе Харью, Фэнтези, приключения, мюзикл, драма, 2012) [HDRip, Дубляж] " />

Аплоадер: Админ, дата: 22-08-2013, 12:32, торрент скачан: 359 раз

Понравилась раздача? Посмотрите эти:
  • Мэрайа Мунди и шкатулка Мидаса / The Adventurer: The Curse of the Midas Box ...
  • Воображариум / Imaginaerum (Стобе Харью, фэнтези, приключения, мюзикл, драм ...
  • Воображариум / Imaginaerum (Стобе Харью, фэнтези, приключения, мюзикл, драм ...
  • Воображариум / Imaginaerum (Стобе Харью, фэнтези, приключения, мюзикл, драм ...
  • Воображариум / Imaginaerum (Стобе Харью, Фэнтези, приключения, мюзикл, драм ...
  • Воображариум / Imaginaerum (Стобе Харью, Фэнтези, приключения, мюзикл, драм ...
  • Воображариум / Imaginaerum (Стобе Харью, Фэнтези, приключения, мюзикл, драм ...
  • Решала (Роман Асхаев, Драма,Криминал, 2012) [WEB-DLRip, Не требуется]
  • Воображариум / Imaginaerum (Стобе Харью, мюзикл, фэнтези, драма, 2012) [HDR ...
  • Тихая гавань / Safe Haven (Лассе Халльстрём, триллер, драма, мелодрама, дет ...
  • Родительский беспредел / Parental Guidance (Энди Фикмен, комедия, семейный, ...
  • [Трейлер] Воображариум / Imaginaerum (Стобе Харью, мюзикл, фэнтези, драма) ...
  • Магазин самоубийств / Le magasin des suicides (Патрис Леконт, Мультфильм, м ...
  • Скуби-Ду! Маска Синего Сокола / Scooby-Doo! Mask Of The Blue Falcon (Оливье ...
  • Чемпионат Европы 2012 / Группа D / 1-й тур / Украина - Швеция / Спорт 1 [11 ...
  • Мулан 2 / Mulan II (Даррел Руни, Линн Сауферлэнд, мультфильм, мюзикл, боеви ...
  • Холостячки / Bachelorette (Лесли Хэдланд, комедия, 2012) [HDRip, Дубляж]
  • Человек, который изменил всё / Moneyball (Беннетт Миллер, драма, биография, ...
  • [Тизер-трейлер] Imaginaerum (Стобе Харью, фэнтэзи, мюзикл) [HDWebRip, отсут ...
  • Чемпионат Европы 2012 / Группа B / 1-й тур / Германия - Португалия / Спорт ...
  • Информация
    Посетители, находящиеся в группе Гости, не могут оставлять комментарии к данной публикации.