вход на сайт

Имя пользователя :
Пароль :

Восстановление пароля Регистрация
Элитное общество / The Bling Ring (София Коппола, драма, криминал, 2013) [HDRip, Дублированный]
Рейтинг:
(голосов: 1)



[img]{THEME}/images/logopost.png[/img]



Элитное общество / The Bling Ring
«Где украсть красивую жизнь?.»



Год выпуска: 2013
Страна: США, Великобритания, Франция, Германия, Япония
Производство: Tohokushinsha Film Corp.
Жанр: драма, криминал

Режиссер: София Коппола
В ролях: Израэль Бруссар, Кэти Чанг, Эмма Уотсон, Таисса Фармига, Клер Элис Жюльен, Гэвин Россдэйл, Джорджия Рок, Лесли Манн, Карлос Миранда, Стэйси Эдвардс и др.

Перевод: Дублированный
Субтитры: Отсутствуют

Описание: В поисках адреналина и приключений пятеро отчаянных подростков ради прикола стали навещать богатые особняки в окрестностях Голливуда. Наведываясь в гости к Линдси Лохан, Орландо Блуму, Пэрис Хилтон и другим голливудским звездам, девушки, конечно, больше интересовались дизайнерской одеждой и драгоценностями, а юноши — просто деньгами. Совершив десять краж со взломом, ребятки награбили больше трех миллионов долларов…



Дата премьеры (мир): 16 мая 2013
Дата премьеры (РФ): 4 июля 2013, «Парадиз»

МедиаИнфо ▼Text

D:Elitnoe.obschestvo.2013.D.HDRip.1400Mb.avi
General
Complete name : D:Elitnoe.obschestvo.2013.D.HDRip.1400Mb.avi
Format : AVI
Format/Info : Audio Video Interleave
File size : 1.37 GiB
Duration : 1h 30mn
Overall bit rate : 2 161 Kbps
Writing application : VirtualDubMod 1.5.10.2 (build 2540/release)
Writing library : VirtualDubMod build 2540/release
Video #0
ID : 0
Format : MPEG-4 Visual
Format profile : Advanced [email protected]
Format settings, BVOP : Yes
Format settings, QPel : No
Format settings, GMC : No warppoints
Format settings, Matrix : Custom
Codec ID : XVID
Codec ID/Hint : XviD
Duration : 1h 30mn
Bit rate : 1 768 Kbps
Width : 720 pixels
Height : 384 pixels
Display aspect ratio : 1.875
Frame rate : 23.976 fps
Color space : YUV
Chroma subsampling : 4:2:0
Bit depth : 8 bits
Scan type : Progressive
Compression mode : Lossy
Bits/(Pixel*Frame) : 0.267
Stream size : 1.12 GiB (82%)
Writing library : XviD 1.2.1 (UTC 2008-12-04)
Audio #1
ID : 1
Format : AC-3
Format/Info : Audio Coding 3
Mode extension : CM (complete main)
Codec ID : 2000
Duration : 1h 30mn
Bit rate mode : Constant
Bit rate : 384 Kbps
Channel(s) : 6 channels
Channel positions : Front: L C R, Side: L R, LFE
Sampling rate : 48.0 KHz
Bit depth : 16 bits
Compression mode : Lossy
Stream size : 248 MiB (18%)
Alignment : Split accross interleaves
Interleave, duration : 42 ms (1.00 video frame)
Interleave, preload duration : 500 ms



Качество: HDRip
Продолжительность: 01:30:33

Формат: AVI
Видео кодек: XviD
Аудио кодек: AC3
Видео: 720x384 (1.88:1), 23.976 fps, XviD build 50 ~1767 kbps avg, 0.27 bit/pixel
Аудио: 48 kHz, AC3 Dolby Digital, 3/2 (L,C,R,l,r) + LFE ch, ~384.00 kbps avg





ba7d857d98509ff429981b0ea5632119a9b46b5eЭлитное общество / The Bling Ring (София Коппола, драма, криминал, 2013) [HDRip, Дублированный] Элитное общество / The Bling Ring (София Коппола, драма, криминал, 2013) [HDRip, Дублированный] " />

Аплоадер: Админ, дата: 5-09-2013, 20:56, торрент скачан: 359 раз

Понравилась раздача? Посмотрите эти:
  • Погнали! / Getaway (Кортни Соломон, Боевик, Криминал, 2013) [HDRip, Професс ...
  • Погнали! / Getaway (Кортни Соломон, Боевик,Криминал, 2013) [HDRip, Професси ...
  • Вирус / Flu (Ким Сон Су, Драма, 2013) [HDTVRip, Любительский (двухголосый з ...
  • Элитное общество / The Bling Ring (София Коппола, Драма, криминал, 2013) [D ...
  • Верное дельце / Une pure affaire (Александр Коффре, Боевик, Комедия, Кримин ...
  • Мои герои / Mes heros (Эрик Беснард, комедия, 2012) [HDRip, Профессиональны ...
  • Посылка / The Package (Джесси Джонсон, боевик, 2013) [HDRip, Профессиональн ...
  • Элитное общество / The Bling Ring (София Коппола, Драма, криминал, 2013) [B ...
  • Элитное общество / The Bling Ring (София Коппола, драма, криминал, 2013) [B ...
  • Элитное общество / The Bling Ring (София Коппола, драма, криминал, 2013) BD ...
  • Элитное общество / The Bling Ring (София Коппола, драма, криминал, 2013) [B ...
  • Элитное общество / The Bling Ring (София Коппола, Драма, криминал, 2013) [H ...
  • Элитное общество / The Bling Ring (София Коппола, Драма, криминал, 2013) [H ...
  • Мёбиус / Mоbius (Эрик Рошан, триллер, драма, 2013) [HDRip, Дублированный + ...
  • Мужество / Wymyk (Грег Зглински, драма, 2011) [DVDRip, Любительский (одного ...
  • 42 / 42 (Брайан Хелгеленд, драма, биография, спорт, 2013) [BDRip, Профессио ...
  • Решала (Роман Асхаев, Драма,Криминал, 2012) [WEB-DLRip, Не требуется]
  • Звук моего голоса / Sound of My Voice (Зал Батманглидж, триллер, драма, 201 ...
  • Слепой поворот / Blind Turn (Роберт Орр, Триллер, драма, детектив, 2012) [W ...
  • 23:59 / 23:59 (Гилберт Чан, Ужасы, 2011) [HDRip, Любительский (одноголосый ...
  • В хлам / Smashed (Джеймс Понсольдт, Драма, комедия, 2012) [HDRip, Профессио ...
  • Tank Feat. T.I. & Kris Stephens / Compliments [2012, RnB,Hip-Hop, HDRip]
  • Битва в пустыне / The Objective (Дэниэл Мирик, ужасы, фантастика, триллер, ...
  • Супершторм в Сиэтле / Seattle Superstorm (Джейсон Бурк, фантастика, боевик ...
  • Девушки в опасности / Damsels in Distress (Уит Стиллман, драма, мелодрама, ...
  • Информация
    Посетители, находящиеся в группе Гости, не могут оставлять комментарии к данной публикации.