вход на сайт

Имя пользователя :
Пароль :

Восстановление пароля Регистрация
Элитное общество / The Bling Ring (София Коппола, драма, криминал, 2013) BDRip-AVC, Дублированный, Оригинал (Английский)]
Рейтинг:
(голосов: 1)



[img]{THEME}/images/logopost.png[/img]



Элитное общество / The Bling Ring
«Где украсть красивую жизнь?.»

Год выпуска: 2013
Страна: США, Великобритания, Франция, Германия, Япония
Производство: Tohokushinsha Film Corp
Жанр: драма, криминал

Режиссёр: София Коппола
В ролях: Израэль Бруссар, Кэти Чанг, Таисса Фармига, Клер Элис Жюльен, Джорджия Рок, Эмма Уотсон, Лесли Манн, Карлос Миранда, Гэвин Россдэйл, Стэйси Эдвардс

Перевод: Дублированный, Оригинал (Английский)
Субтитры: Английские

Описание:В поисках адреналина и приключений пятеро отчаянных подростков ради прикола стали навещать богатые особняки в окрестностях Голливуда. Наведываясь в гости к Линдси Лохан, Орландо Блуму, Пэрис Хилтон и другим голливудским звездам, девушки, конечно, больше интересовались дизайнерской одеждой и драгоценностями, а юноши — просто деньгами. Совершив десять краж со взломом, ребятки награбили больше трех миллионов долларов…



премьера (мир): 16 мая 2013
премьера (РФ): 4 июля 2013, «Парадиз»

Качество: BDRip-AVC
Продолжительность: 01:30:36

Формат: MKV
Видео кодек: H.264
Аудио кодек: AC3
Видео: 1024x552 (1.85:1), 23.97 fps, H.264 ~2500 kbps avg, 0.0.184 bit/pixel
Аудио#1: 48 kHz, AC3, 6 ch, ~384.00 kbps avg(русс)
Аудио#2: 48 kHz, AC3, 6 ch, ~448.00 kbps avg(eng)
"Media Info" ▼Общее
Уникальный идентификатор : 230936396918712222108632308424237984944 (0xADBCBB71F2C9823E8B13C925CC212CB0)
Полное имя : D:Mои раздачиElitnoe.obschestvo.2013.BDRip.(AVC)-MediaClub.mkv
Формат : Matroska
Версия формата : Version 4 / Version 2
Размер файла : 2,11 Гбайт
Продолжительность : 1 ч. 30 м.
Общий поток : 3332 Кбит/сек
Название фильма : -=MediaClub-kaspr=-
Дата кодирования : UTC 2013-09-06 13:14:24
Программа кодирования : mkvmerge v6.3.0 (You cant stop me!) built on Jul 19 2013 16:27:38
Библиотека кодирования : libebml v1.3.0 + libmatroska v1.4.1

Видео
Идентификатор : 1
Формат : AVC
Формат/Информация : Advanced Video Codec
Профиль формата : [email protected]
Параметр CABAC формата : Да
Параметр ReFrames формата : 9 кадров
Идентификатор кодека : V_MPEG4/ISO/AVC
Продолжительность : 1 ч. 30 м.
Битрейт : 2500 Кбит/сек
Ширина : 1024 пикселя
Высота : 552 пикселя
Соотношение сторон : 1,85:1
Режим частоты кадров : Постоянный
Частота кадров : 23,976 кадра/сек
Цветовое пространство : YUV
Субдискретизация насыщенности : 4:2:0
Битовая глубина : 8 бит
Тип развёртки : Прогрессивная
Бит/(Пиксели*Кадры) : 0.184
Размер потока : 1,54 Гбайт (73%)
Заголовок : -=MediaClub-kaspr=-
Библиотека кодирования : x264 core 130 r2273 b3065e6
Настройки программы : cabac=1 / ref=9 / deblock=1:-3:-3 / analyse=0x3:0x133 / me=umh / subme=11 / psy=1 / psy_rd=1.00:0.20 / mixed_ref=1 / me_range=48 / chroma_me=1 / trellis=2 / 8x8dct=1 / cqm=0 / deadzone=21,11 / fast_pskip=0 / chroma_qp_offset=-3 / threads=12 / lookahead_threads=3 / sliced_threads=0 / nr=0 / decimate=0 / interlaced=0 / bluray_compat=0 / constrained_intra=0 / bframes=10 / b_pyramid=2 / b_adapt=2 / b_bias=0 / direct=3 / weightb=1 / open_gop=0 / weightp=2 / keyint=240 / keyint_min=23 / scenecut=40 / intra_refresh=0 / rc=2pass / mbtree=0 / bitrate=2500 / ratetol=1.0 / qcomp=0.60 / qpmin=0 / qpmax=69 / qpstep=4 / cplxblur=20.0 / qblur=0.5 / ip_ratio=1.40 / pb_ratio=1.30 / aq=1:1.00
Default : Да
Forced : Да

Аудио #1
Идентификатор : 2
Формат : AC-3
Формат/Информация : Audio Coding 3
Расширение режима : CM (complete main)
Параметр Endianness формата : Big
Идентификатор кодека : A_AC3
Продолжительность : 1 ч. 30 м.
Вид битрейта : Постоянный
Битрейт : 384 Кбит/сек
Каналы : 6 каналов
Расположение каналов : Front: L C R, Side: L R, LFE
Частота : 48,0 КГц
Битовая глубина : 16 бит
Метод сжатия : С потерями
Размер потока : 249 Мбайт (12%)
Заголовок : Дубляж
Язык : Russian
Default : Да
Forced : Да

Аудио #2
Идентификатор : 3
Формат : AC-3
Формат/Информация : Audio Coding 3
Расширение режима : CM (complete main)
Параметр Endianness формата : Big
Идентификатор кодека : A_AC3
Продолжительность : 1 ч. 30 м
40c3b6a91ca1c821ed7464caff8a782cc51774a0Элитное общество / The Bling Ring (София Коппола, драма, криминал, 2013) BDRip-AVC, Дублированный, Оригинал (Английский)] Элитное общество / The Bling Ring (София Коппола, драма, криминал, 2013) BDRip-AVC, Дублированный, Оригинал (Английский)] " />

Аплоадер: Админ, дата: 6-09-2013, 21:06, торрент скачан: 359 раз

Понравилась раздача? Посмотрите эти:
  • Джобс: Империя соблазна / jOBS (Джошуа Майкл Штерн, драма, биография, 2013) ...
  • 11.6 / 11.6 (Филипп Годо, Драма, триллер, криминал, 2013) [BDRip-AVC, Профе ...
  • Элитное общество / The Bling Ring (София Коппола, Драма, криминал, 2013) [D ...
  • Мальчишник: Часть III / The Hangover Part III (Тодд Филлипс, комедия, 2013) ...
  • Иллюзия обмана / Now You See Me [Extended Cut] (Луи Летерье, триллер, крими ...
  • Иллюзия обмана / Now You See Me [Extended Cut] (Луи Летерье, триллер, крими ...
  • Заклятие / The Conjuring (Джеймс Ван, ужасы, триллер, 2013) [BDRip 720р, Ду ...
  • Заклятие / The Conjuring (Джеймс Ван, ужасы, триллер, 2013) [BDRip 1080p, Д ...
  • Элитное общество / The Bling Ring (София Коппола, Драма, криминал, 2013) [B ...
  • Война миров Z / World War Z [Theatrical Cut] (Марк Форстер, ужасы, фантасти ...
  • Элитное общество / The Bling Ring (София Коппола, драма, криминал, 2013) [B ...
  • Элитное общество / The Bling Ring (София Коппола, драма, криминал, 2013) [B ...
  • Элитное общество / The Bling Ring (София Коппола, Драма, криминал, 2013) [H ...
  • Элитное общество / The Bling Ring (София Коппола, Драма, криминал, 2013) [H ...
  • Элитное общество / The Bling Ring (София Коппола, драма, криминал, 2013) [H ...
  • Место под соснами / The Place Beyond the Pines (Дерек Сиенфрэнс, драма, кри ...
  • Рикошет / Ricochet (Ник Гомез, драма, детектив, 2011) [BDRip-AVC, Профессио ...
  • Даю год / I Give It a Year (Дэн Мазер, мелодрама, комедия, 2012) [BDRip-AVC ...
  • Ангелы Чарли / Charlies Angels (МакДжи, Боевик, триллер, комедия, криминал, ...
  • Суррогат / The Sessions (Бен Луин, Драма, 2012) [BDRip-AVC, Профессиональны ...
  • Информация
    Посетители, находящиеся в группе Гости, не могут оставлять комментарии к данной публикации.