вход на сайт

Имя пользователя :
Пароль :

Восстановление пароля Регистрация
Марафон (Карен Оганесян, комедия, 2013) [DVDRip-AVC, Не требуется]
Рейтинг:
(голосов: 1)



[img]{THEME}/images/logopost.png[/img]



Марафон

Год выпуска: 2013
Страна: Россия
Производство: Синема Арт Студио
Жанр: комедия

Режиссёр: Карен Оганесян
В ролях: Михаил Пореченков, Екатерина Васильева, Юлия Пересильд, Анатолий Белый, Игорь Савочкин, Ольга Волкова, Сергей Газаров, Анна Михалкова, Мария Аронова, Ирина Пивоварова

Перевод: Не требуется
Субтитры: Отсутствуют

Описание: Жизнь Толика не удалась, спортивная карьера не состоялась, жена ушла к другому. Неуспешный, нелюбимый, безнадежный он потерял веру в себя. Все меняет случайная встреча со странной незнакомкой Анной Ильиничной, которая предлагает ему принять участие в необычном марафоне в далекой Америке…



Качество: DVDRip-AVC
Продолжительность: 01:40:58 час.

Формат: Matroska
Видео кодек: x264
Аудио кодек: AC3
Видео: [email protected] (1.85:1), 25.000 fps, x264 ~1806 kbps avg, 0.182 bit/pixel
Аудио: 48 kHz, AC3 Dolby Digital, 3/2 (L,C,R,l,r) + LFE ch, ~256 kbps

Дата премьеры (мир): 4 июля 2013
Дата премьеры (РФ): 8 мая 2003, «Союз»

Отчёт MediaInfo ▼Формат : Matroska
Версия формата : Version 2
Размер файла : 1,45 Гбайт
Продолжительность : 1 ч. 40 м.
Общий поток : 2063 Кбит/сек
Дата кодирования : UTC 2013-09-08 03:15:30
Программа кодирования : mkvmerge v5.0.1 (Es ist Sommer) built on Nov 6 2011 16:23:40
Библиотека кодирования : libebml v1.2.2 + libmatroska v1.3.0

Видео
Идентификатор : 1
Формат : AVC
Формат/Информация : Advanced Video Codec
Профиль формата : [email protected]
Параметр CABAC формата : Да
Параметр ReFrames формата : 11 кадров
Идентификатор кодека : V_MPEG4/ISO/AVC
Продолжительность : 1 ч. 40 м.
Битрейт : 1806 Кбит/сек
Ширина : 720 пикселей
Высота : 550 пикселей
Соотношение сторон : 1,85:1
Режим частоты кадров : Постоянный
Частота кадров : 25,000 кадров/сек
Цветовое пространство : YUV
Субдискретизация насыщенности : 4:2:0
Битовая глубина : 8 бит
Тип развёртки : Прогрессивная
Бит/(Пиксели*Кадры) : 0.182
Размер потока : 1,25 Гбайт (86%)
Библиотека кодирования : x264 core 130 r2273 b3065e6
Настройки программы : cabac=1 / ref=11 / deblock=1:-2:-1 / analyse=0x3:0x113 / me=umh / subme=9 / psy=1 / psy_rd=1.00:0.20 / mixed_ref=1 / me_range=32 / chroma_me=1 / trellis=1 / 8x8dct=1 / cqm=0 / deadzone=21,11 / fast_pskip=0 / chroma_qp_offset=-3 / threads=9 / lookahead_threads=1 / sliced_threads=0 / nr=0 / decimate=0 / interlaced=0 / bluray_compat=0 / constrained_intra=0 / bframes=8 / b_pyramid=2 / b_adapt=2 / b_bias=0 / direct=3 / weightb=1 / open_gop=0 / weightp=2 / keyint=250 / keyint_min=25 / scenecut=40 / intra_refresh=0 / rc_lookahead=60 / rc=2pass / mbtree=1 / bitrate=1806 / ratetol=1.0 / qcomp=0.60 / qpmin=0 / qpmax=69 / qpstep=4 / cplxblur=20.0 / qblur=0.5 / ip_ratio=1.40 / aq=1:1.00
Default : Да
Forced : Нет

Аудио
Идентификатор : 2
Формат : AC-3
Формат/Информация : Audio Coding 3
Расширение режима : CM (complete main)
Параметр Endianness формата : Big
Идентификатор кодека : A_AC3
Продолжительность : 1 ч. 40 м.
Вид битрейта : Постоянный
Битрейт : 256 Кбит/сек
Каналы : 6 каналов
Расположение каналов : Front: L C R, Side: L R, LFE
Частота : 48,0 КГц
Битовая глубина : 16 бит
Метод сжатия : С потерями
Размер потока : 185 Мбайт (12%)
Default : Да
Forced : Нет


Наши рипы / Набор в РГ / Стол заказов РГ / Новости РГ


724cb30c2897e4f272368dad1db020dedf4b17d8Марафон (Карен Оганесян, комедия, 2013) [DVDRip-AVC, Не требуется] Марафон (Карен Оганесян, комедия, 2013) [DVDRip-AVC, Не требуется] " />

Аплоадер: Админ, дата: 9-09-2013, 04:39, торрент скачан: 359 раз

Понравилась раздача? Посмотрите эти:
  • Одноклассники 2 / Grown Ups 2 (Деннис Дуган, Комедия, 2013) [BDRip-AVC, Про ...
  • Околофутбола (Антон Борматов, драма, криминал, 2013) [DVDRip-AVC, Не требуе ...
  • Марафон (Карен Оганесян, комедия, 2013) [WEB-DLRip, Не требуется]
  • Усатый нянь (Владимир Грамматиков, комедия, семейный, 1977) [DVDRip-AVC, Не ...
  • Интимные места (Наталья Меркулова, Алексей Чупов, драма, мелодрама, 2013) [ ...
  • Марафон (Карен Оганесян, Комедия, 2013) [DVDRip-AVC, Не требуется]
  • Игра в правду (Виктор Шамиров, комедия, 2013) [DVDRip-AVC, Не требуется]
  • Незнакомец внутри / The Stranger Within (Adam Neutzsky-Wulff, триллер, 2013 ...
  • Виолет и Дейзи / Sightseers (Джеффри Флетчер, боевик, триллер, драма, комед ...
  • Марафон (Карен Оганесян, комедия, 2013) [DVDRip, Не требуется]
  • Марафон (Карен Оганесян, комедия, 2013) [DVDRip, Не требуется]
  • Соломенная шляпка (2 серии) (Леонид Квинихидзе, мюзикл, комедия, 1974) [DVD ...
  • Паровозик Тишка / Сезон 1, Эпизоды с 1 по 12 (из 12) (мультфильм, короткоме ...
  • Возвращение Буратино (Екатерина Михайлова, Мультфильм, приключения, семейны ...
  • 21 и больше / 21 & Over (Джон Лукас, Скотт Мур, Комедия, 2013) [BDRip-AVC, ...
  • 21 и больше / 21 & Over (Джон Лукас, Скотт Мур, комедия, 2013) [DVDRip-AVC, ...
  • Чемпионат Англии 2012-2013 / 25-й тур / Обзор / Суббота / BBC Sport [2013 г ...
  • Пять невест (Карен Оганесян, Комедия, 2011) [BDRip - AVC, Не требуется]
  • Пять невест (Карен Оганесян, Комедия, 2011) [BDRip - AVC, Не требуется]
  • Переростки / The Inbetweeners (Бен Палмер, Комедия, 2011) [BDRip-AVC, Профе ...
  • Самоубийцы (Егор Баранов, комедия, 2012) [DVDRip-AVC, Оригинал]
  • Любовь с акцентом (Резо Гигинеишвили, Комедия, приключения, 2012) [BDRip-AV ...
  • День учителя (Сергей Мокрицкий, драма, 2012) [DVDRip-AVC, Не требуется]
  • Котенок с улицы Лизюкова (Вячеслав Котеночкин, Мультфильм, 1988) [DVDRip-AV ...
  • Лоракс: Серенада / The Lorax: Serenade (Кайл Балда, мультфильм, комедия, му ...
  • Информация
    Посетители, находящиеся в группе Гости, не могут оставлять комментарии к данной публикации.