вход на сайт

Имя пользователя :
Пароль :

Восстановление пароля Регистрация
Ученик мастера / Tai Chi 0 (Стивен Фанг, Боевик, драма, 2012) [DVDRip, Дублированный]
Рейтинг:
(голосов: 1)



[img]{THEME}/images/logopost.png[/img]



Ученик мастера / Tai Chi 0
«Рождение легенды»



Год выпуска: 2012
Страна: Китай
Производство: Diversion Pictures, Huayi Brothers & Taihe Film Investment
Жанр: Боевик, драма

Режиссер: Стивен Фанг
В ролях: Фунг Харк-Он, Стивен Фанг, Юань Сяочао, Шу Ци, Вэй Кеунг Лау, Сю-Люн Люн, Анджела Бейби, Эдди Пэн, Ди У, Чэнь Сы Чэн

Перевод: Дублированный
Субтитры: Отсутствуют

Описание: Необыкновенно одарённого ребёнка Яна все считают местным дурачком, но он не обращает на это внимание. Ян отправляется в затерянную в горах деревню мастеров кунг-фу, чтобы изучить тайны этой борьбы. Но, он недостоин обучаться великому искусству — в первом же бою он проиграл девушке. Только местный нищий старик сочувствует ему и берется научить его. Эти навыки ему пригодятся в борьбе с злодеями, чтобы вернуть доверие жителей деревни и завоевать сердце красавицы Юнь. Ведь нищий старик, на самом деле, великий мастер кунгфу и отец Юнь. Битва начинается!



Премьера (мир): 31 августа 2012, ...
Премьера (РФ): 29 августа 2013, «Арена», ...

МедиаИнфо ▼Text

D:Uchenik.mastera.2012.ХviD.DVDRip.avi
General
Complete name : D:Uchenik.mastera.2012.ХviD.DVDRip.avi
Format : AVI
Format/Info : Audio Video Interleave
File size : 1.57 GiB
Duration : 1h 33mn
Overall bit rate : 2 391 Kbps
Writing application : VirtualDubModRus 1.5.10.2 (build 2542/release)
Writing library : VirtualDubMod build 2542/release
Video #0
ID : 0
Format : MPEG-4 Visual
Format profile : Advanced [email protected]
Format settings, BVOP : Yes
Format settings, QPel : No
Format settings, GMC : No warppoints
Format settings, Matrix : Default (H.263)
Codec ID : XVID
Codec ID/Hint : XviD
Duration : 1h 33mn
Bit rate : 1 998 Kbps
Width : 720 pixels
Height : 304 pixels
Display aspect ratio : 2.35:1
Frame rate : 23.976 fps
Color space : YUV
Chroma subsampling : 4:2:0
Bit depth : 8 bits
Scan type : Progressive
Compression mode : Lossy
Bits/(Pixel*Frame) : 0.381
Stream size : 1.31 GiB (84%)
Writing library : XviD 1.2.1 (UTC 2008-12-04)
Audio #1
ID : 1
Format : AC-3
Format/Info : Audio Coding 3
Mode extension : CM (complete main)
Codec ID : 2000
Duration : 1h 33mn
Bit rate mode : Constant
Bit rate : 384 Kbps
Channel(s) : 6 channels
Channel positions : Front: L C R, Side: L R, LFE
Sampling rate : 48.0 KHz
Bit depth : 16 bits
Compression mode : Lossy
Stream size : 258 MiB (16%)
Alignment : Split accross interleaves
Interleave, duration : 42 ms (1.00 video frame)
Interleave, preload duration : 500 ms



Качество: DVDRip
Продолжительность: 01:33:46

Формат: AVI
Видео кодек: XviD
Аудио кодек: AC3
Видео: 720x304 (2.37:1), 23.976 fps, XviD build 50 ~1997 kbps avg, 0.38 bit/pixel
Аудио: 48 kHz, AC3 Dolby Digital, 3/2 (L,C,R,l,r) + LFE ch, ~384.00 kbps avg





1621ca152a9390ba71fb43076c47f1dc72b9da12Ученик мастера / Tai Chi 0 (Стивен Фанг, Боевик, драма, 2012) [DVDRip, Дублированный] Ученик мастера / Tai Chi 0 (Стивен Фанг, Боевик, драма, 2012) [DVDRip, Дублированный] " />

Аплоадер: Админ, дата: 28-09-2013, 16:16, торрент скачан: 359 раз

Понравилась раздача? Посмотрите эти:
  • Вирус / Flu (Ким Сон Су, Драма, 2013) [HDTVRip, Любительский (двухголосый з ...
  • Верное дельце / Une pure affaire (Александр Коффре, Боевик, Комедия, Кримин ...
  • Ученик мастера / Tai Chi 0 (Стивен Фанг, боевик, драма, 2012) [HDRip Профес ...
  • Ученик мастера / Tai Chi 0 (Стивен Фанг, Боевик, драма, 2012) [HDRip, Профе ...
  • Ученик мастера / Tai Chi 0 (Стивен Фанг, боевик, драма, 2012) [BDRip 720p, ...
  • Ученик мастера / Tai Chi 0 (Стивен Фанг, Боевик, драма, 2012) [BDRip-AVC, П ...
  • Ученик мастера / Tai Chi 0 (Стивен Фанг, Боевик, драма, 2012) [HDRip-AVC, П ...
  • Ученик мастера / Tai Chi 0 (Стивен Фанг, боевик, драма, 2012) [Blu-ray Remu ...
  • Ученик мастера / Tai Chi 0 (Стивен Фанг, боевик, драма, 2012) [BDRip-AVC, Д ...
  • Мужество / Wymyk (Грег Зглински, драма, 2011) [DVDRip, Любительский (одного ...
  • Решала (Роман Асхаев, Драма,Криминал, 2012) [WEB-DLRip, Не требуется]
  • Звук моего голоса / Sound of My Voice (Зал Батманглидж, триллер, драма, 201 ...
  • Слепой поворот / Blind Turn (Роберт Орр, Триллер, драма, детектив, 2012) [W ...
  • Тюремщик / Screwed (Рег Тревисс / Reg Traviss, Драма, 2011) [DVDRip , Люби ...
  • Плохая актриса / Bad Actress (Роберт Ли Кинг, комедия, 2011) [DVDRip, Профе ...
  • Захват / Carjacked (Джон Бонито, триллер, 2011)[BDRip, Профессиональный (мн ...
  • Tank Feat. T.I. & Kris Stephens / Compliments [2012, RnB,Hip-Hop, HDRip]
  • Олимпийский квалификационный турнир 2012 / Венесуэла / Мужчины / Группа C / ...
  • Супершторм в Сиэтле / Seattle Superstorm (Джейсон Бурк, фантастика, боевик ...
  • Олимпиада 2012 / Женщины, Мужчины / Плавание / Квалификация / НТВ+ [30.07.2 ...
  • Информация
    Посетители, находящиеся в группе Гости, не могут оставлять комментарии к данной публикации.