вход на сайт

Имя пользователя :
Пароль :

Восстановление пароля Регистрация
Мы - Миллеры [Расширенная версия] / Were the Millers [Extended Cut] (Роусон Маршалл Тёрбер, Комедия, криминал, 2013) [BDRip, Профессиональный (многоголосый закадровый) [Baibako]]
Рейтинг:
(голосов: 1)



[img]{THEME}/images/logopost.png[/img]



Мы - Миллеры [Расширенная версия] / Were the Millers [Extended Cut]

«-If anyone asks»

Год выпуска: 2013
Страна: США
Производство: BenderSpink, New Line Cinema, Vincent Newman Entertainment
Жанр: Комедия, криминал

Режиссёр: Роусон Маршалл Тёрбер
В ролях: Дженнифер Энистон, Джейсон Судейкис, Уилл Поултер, Эмма Робертс, Эд Хелмс, Ник Офферман, Кэтрин Хан, Молли С. Куинн, Томер Сисле, Мэттью Уиллиг

Перевод: Профессиональный (многоголосый закадровый)
Озвучка: [Baibako]
Субтитры: нет

Описание: Дэвид Берк — мелкий торговец наркотиками. Среди его клиентов — повара и скучающие домохозяйки. Детям он наркотики не продаёт и поэтому считает себя принципиальным человеком. Дэвид действительно хорошо относится к детям, но это не остается безнаказанным — он пытается помочь подросткам, попавшим в беду, и на него нападают хулиганы-панки. Они отбирают у него наркотики и деньги, и наш герой оказывается в отчаянном положении. Ведь ему нечем расплатиться с его поставщиком Брэдом. Единственный выход — подрядиться на доставку крупной партии наркотиков через границу…
Качество: BDRip |Cравнение c похожей раздачей
Продолжительность: 01:58:43 час.

Формат: AVI
Видео кодек: XviD
Аудио кодек: MP3
Видео: 688x288 (2,40:1), 23.976 fps, XviD build 73, ~740 kbps, 0.156 bit/pix
Аудио: 48 kHz, MP 3, 2 ch, ~128 kbps

MediaInfo ▼
Общее
Полное имя : D:Were.the.Millers.2013.(Extended Cut).BDRip.745mb.By_Flash.avi
Формат : AVI
Формат/Информация : Audio Video Interleave
Размер файла : 745 Мбайт
Продолжительность : 1 ч. 58 м.
Общий поток : 878 Кбит/сек
Программа кодирования : VirtualDubMod 1.5.10.3 | www.virtualdub-fr.org || (build 2550/release)
Библиотека кодирования : VirtualDubMod build 2550/release

Видео
Идентификатор : 0
Формат : MPEG-4 Visual
Профиль формата : Advanced [email protected]
Параметр BVOP формата : 1
Параметр QPel формата : Нет
Параметр GMC формата : Без точки перехода
Параметр матрицы формата : Выборочная
Идентификатор кодека : XVID
Идентификатор кодека/Подсказка : XviD
Продолжительность : 1 ч. 58 м.
Битрейт : 740 Кбит/сек
Ширина : 688 пикселей
Высота : 288 пикселей
Соотношение сторон : 2,40:1
Частота кадров : 23,976 кадра/сек
Цветовое пространство : YUV
Субдискретизация насыщенности : 4:2:0
Битовая глубина : 8 бит
Тип развёртки : Прогрессивная
Метод сжатия : С потерями
Бит/(Пиксели*Кадры) : 0.156
Размер потока : 629 Мбайт (84%)
Библиотека кодирования : XviD 73

Аудио
Идентификатор : 1
Формат : MPEG Audio
Версия формата : Version 1
Профиль формата : Layer 3
Идентификатор кодека : 55
Идентификатор кодека/Подсказка : MP3
Продолжительность : 1 ч. 58 м.
Вид битрейта : Постоянный
Битрейт : 128 Кбит/сек
Каналы : 2 канала
Частота : 48,0 КГц
Метод сжатия : С потерями
Размер потока : 109 Мбайт (15%)
Выравнивание : Соединение по промежуткам
Продолжительность промежутка : 42 мс. (1,00 видеокадр)
Время предзагрузки промежутка : 504 мс.
Библиотека кодирования : LAME3.99r
Настройки программы : -m s -V 4 -q 2 -lowpass 17 -b 128


Дата премьеры (мир): 3 августа 2013
Дата премьеры (РФ): 15 августа 2013


75fa8e11bf61b268d4f2109becdd8d5c2b368dbfМы - Миллеры [Расширенная версия] / Were the Millers [Extended Cut] (Роусон Маршалл Тёрбер, Комедия, криминал, 2013) [BDRip, Профессиональный (многоголосый закадровый) [Baibako]] Мы - Миллеры [Расширенная версия] / Were the Millers [Extended Cut] (Роусон Маршалл Тёрбер, Комедия, криминал, 2013) [BDRip, Профессиональный (многоголосый закадровый) [Baibako]] " />

Аплоадер: Админ, дата: 9-11-2013, 16:48, торрент скачан: 359 раз

Понравилась раздача? Посмотрите эти:
  • Мы – Миллеры / Were the Millers [Theatrical Cut] (Роусон Маршалл Тёрбер, ко ...
  • Мы – Миллеры / Were the Millers [Theatrical Cut] (Роусон Маршалл Тёрбер, ко ...
  • Мы – Миллеры / Were the Millers [Extended Cut] (Роусон Маршалл Тёрбер, коме ...
  • Мы - Миллеры / Were the Millers [Theatrical Cut] (Роусон Маршалл Тёрбер, Ко ...
  • Мы - Миллеры (Театральная версия) / Were the Millers (Theatrical Cut) (Роус ...
  • Мы – Миллеры [Театральная версия] / Were the Millers [Theatrical Cut] (Роус ...
  • Мы – Миллеры / Were the Millers [2in1: Extended & Theatrical Cut] (Роусон М ...
  • Миллионы Брюстера / Brewsters Millions (Уолтер Хилл, Комедия, 1985) [HDTVRi ...
  • Околофутбола (Антон Борматов, драма, криминал, 2013) [DVDRip, Не требуется] ...
  • Мы - Миллеры [Расширенная версия] / Were the Millers [Extended Cut] (Роусон ...
  • Мы - Миллеры [Расширенная версия] / Were the Millers [Extended Cut] (Роусон ...
  • Мы - Миллеры [Расширенная версия] / Were the Millers [Extended Cut] (Роусон ...
  • Мы - Миллеры [Расширенная версия] / Were the Millers [Extended Cut] (Роусон ...
  • Мы - Миллеры [Расширенная версия] / Were the Millers [Extended Cut] (Роусон ...
  • Мы - Миллеры [Расширенная версия] / Were the Millers [Extended Cut] (Роусон ...
  • Мы - Миллеры [Расширенная версия] / Were the Millers [Extended Cut] (Роусон ...
  • Грязная кампания за честные выборы / The Campaign (Джей Роуч , Комедия,201 ...
  • Миллион для чайников / The Brass Teapot (Рамаа Мосли, Фэнтези, триллер, ком ...
  • Астрал на улице Арлетт / 388 Arletta Avenue (Рэндолл Коул, Триллер, 2011) [ ...
  • [Трейлер] Мы – Миллеры / Were the Millers (Роусон Маршалл Тёрбер, комедия) ...
  • Бог любви / God of Love (Люк Мэзени, Короткометражка, фэнтези, комедия, мел ...
  • Любовь по расписанию / Поезд (Сергей Мезенцев, мелодрама, 2012) [HDTVRip, Н ...
  • Заместитель / Il supplente (Андреа Жублин, Короткометражка, комедия, 2007) ...
  • Покорить высоту / Take It to the Limit (Сэм Кит / Sam Kieth, семейный, 2000 ...
  • Пожирая живых / Ночь зомби / Zombie Night (Дэвид Дж. Фрэнсис, Ужасы, комеди ...
  • Информация
    Посетители, находящиеся в группе Гости, не могут оставлять комментарии к данной публикации.