вход на сайт

Имя пользователя :
Пароль :

Восстановление пароля Регистрация
Малавита / The Family (Люк Бессон, Криминал, комедия, боевик, 2013) [DVDRip, Профессиональный (полное дублирование)]
Рейтинг:
(голосов: 1)



[img]{THEME}/images/logopost.png[/img]



Малавита / The Family

Год выпуска: 2013
Страна: США, Франция
Производство: Canal+ [fr], EuropaCorp, Grive Productions, Malavita, Relativity Media, TF1, TF1 Films Production
Жанр: Криминал, комедия, боевик

Режиссёр: Люк Бессон
В ролях: Роберт Де Ниро, Мишель Пфайффер, Томми Ли Джонс, Диана Агрон, Джон Д’Лео, Джон Фреда, Джимми Палумбо, Доменик Ломбардоззи, Стэн Карп, Винсент Пасторе

Перевод: Профессиональный (полное дублирование)
Субтитры: Нет

Описание: Что вы знаете о своих соседях? Особенно о тех, которые заявляются среди ночи… Так, однажды на тихой улочке провинциального французского городка поселился писатель по фамилии Блейк, со своим семейством и собакой Малавитой. На этом многовековое спокойствие города закончилось. Почему сгорел местный супермаркет? Чем рискует медлительный водопроводчик? Что лежит в рюкзаке у милого парня в бежевых бриджах?
Кто бы мог представить, что на самом деле мистер Блейк — бывший глава мафии, которого власти прячут здесь от преследования. И вот в городок приезжают люди «Коза Ностры»…Автор рипа:

Сэмпл
Качество: DVDRip
Продолжительность: 01:46:56 час.

Формат: AVI
Видео кодек: XviD
Аудио кодек: AC3
Видео: 688x288 (2.40:1), 25 fps, XviD build 50 ~838 kbps avg, 0.169 bit/pix
Аудио: 48 kHz, MPEG Layer 3, 2 ch, ~128.00 kbps

Дата премьеры (мир): 10 сентября 2013
Дата премьеры (РФ): 19 сентября 2013, «Парадиз»

"MI" ▼Общее
Полное имя : S:ФильмыМалавита. 2013. DVDRip. (AleksSin).avi
Формат : AVI
Формат/Информация : Audio Video Interleave
Размер файла : 746 Мбайт
Продолжительность : 1 ч. 46 м.
Общий поток : 976 Кбит/сек
Программа кодирования : VirtualDubMod 1.5.10.3 | www.virtualdub-fr.org || (build 2550/release)
Библиотека кодирования : VirtualDubMod build 2550/release

Видео
Идентификатор : 0
Формат : MPEG-4 Visual
Профиль формата : Advanced [email protected]
Параметр BVOP формата : 2
Параметр QPel формата : Нет
Параметр GMC формата : Без точки перехода
Параметр матрицы формата : Default (H.263)
Идентификатор кодека : XVID
Идентификатор кодека/Подсказка : XviD
Продолжительность : 1 ч. 46 м.
Битрейт : 838 Кбит/сек
Ширина : 688 пикс.
Высота : 288 пикс.
Соотношение сторон : 2,40:1
Частота кадров : 25,000 кадр/сек
Цветовое пространство : YUV
Подвыборка цветности : 4:2:0
Битовая глубина : 8 бит
Тип развёртки : Прогрессивная
Метод сжатия : С потерями
Бит/(Пиксели*Кадры) : 0.169
Размер потока : 641 Мбайт (86%)
Библиотека кодирования : XviD 1.2.1 (UTC 2008-12-04)

Аудио
Идентификатор : 1
Формат : MPEG Audio
Версия формата : Version 1
Профиль формата : Layer 3
Идентификатор кодека : 55
Идентификатор кодека/Подсказка : MP3
Продолжительность : 1 ч. 46 м.
Вид битрейта : Постоянный
Битрейт : 128 Кбит/сек
Каналы : 2 канала
Частота : 48,0 КГц
Метод сжатия : С потерями
Размер потока : 97,9 Мбайт (13%)
Выравнивание : Соединение по промежуткам
Продолжительность промежутка : 40 мс. (1,00 видеокадр)
Время предзагрузки промежутка : 504 ms
Библиотека кодирования : LAME3.99r
Настройки программы : -m s -V 4 -q 2 -lowpass 17 -b 128



86c02024b12ffb4b10416ab9029e06d972597767Малавита / The Family (Люк Бессон, Криминал, комедия, боевик, 2013) [DVDRip, Профессиональный (полное дублирование)] Малавита / The Family (Люк Бессон, Криминал, комедия, боевик, 2013) [DVDRip, Профессиональный (полное дублирование)] " />

Аплоадер: Админ, дата: 16-11-2013, 18:37, торрент скачан: 359 раз

Понравилась раздача? Посмотрите эти:
  • Малавита / The Family (Люк Бессон, криминал, комедия, боевик, 2013) [480x20 ...
  • Малавита / The Family (Люк Бессон, боевик, комедия, криминал, 2013) [BDRip- ...
  • Малавита / The Family (Люк Бессон, криминал, комедия, боевик, 2013) [HDRip- ...
  • [iPhone, iPod] Малавита / The Family (Люк Бессон, криминал, комедия, боевик ...
  • Малавита / The Family (Люк Бессон, криминал, комедия, боевик, 2013) [BDRemu ...
  • Малавита / The Family (Люк Бессон, Криминал, комедия, боевик, 2013) [BDRip ...
  • Малавита / The Family (Люк Бессон, Криминал, комедия, боевик, 2013) [BDRip ...
  • Малавита / The Family (Люк Бессон, Криминал, комедия, боевик, 2013) [BDRip- ...
  • Малавита / The Family (Люк Бессон, Криминал, комедия, боевик, 2013) [BDRip, ...
  • Мачете убивает / Machete Kills (Роберт Родригес, боевик, комедия, 2013) [HD ...
  • Малавита / The Family (Люк Бессон, криминал, комедия, боевик, 2013) [BDRip, ...
  • Малавита / The Family [US-Transfer] (Люк Бессон, криминал, комедия, боевик, ...
  • Малавита / The Family (Люк Бессон, Криминал, комедия, боевик, 2013) [DVDRip ...
  • Малавита / The Family (Люк Бессон, Криминал, комедия, боевик, 2013) [DVDRip ...
  • Околофутбола (Антон Борматов, драма, криминал, 2013) [DVDRip, Не требуется] ...
  • Мы - Миллеры [Расширенная версия] / Were the Millers [Extended Cut] (Роусон ...
  • Грязная кампания за честные выборы / The Campaign (Джей Роуч , Комедия,201 ...
  • Злые птицы: Хэллоуин / Angry Birds: HamOWeen (Джей Ройвайнен, Мультфильм, к ...
  • Бог любви / God of Love (Люк Мэзени, Короткометражка, фэнтези, комедия, мел ...
  • Любовь по расписанию / Поезд (Сергей Мезенцев, мелодрама, 2012) [HDTVRip, Н ...
  • Кейси Джонс / Casey Jones (Иларион Бэнкс, Короткометражка, фэнтези, боевик, ...
  • Заместитель / Il supplente (Андреа Жублин, Короткометражка, комедия, 2007) ...
  • Покорить высоту / Take It to the Limit (Сэм Кит / Sam Kieth, семейный, 2000 ...
  • Детский душ / Baby Shower (Pablo Illanes, Ужасы, 2011) [DVDRip, Любительски ...
  • Пожирая живых / Ночь зомби / Zombie Night (Дэвид Дж. Фрэнсис, Ужасы, комеди ...
  • Информация
    Посетители, находящиеся в группе Гости, не могут оставлять комментарии к данной публикации.